(Score) Frank Klepacki & Jarrid Mendelson - Command & Conquer Soundtrack Collection - 2000, FLAC (tracks+.cue), lossless

Ответить на тему
 

Boris_T ®

Стаж: 6 лет 4 месяца

Сообщений: 127

Симпатии: 2

Frank Klepacki & Jarrid Mendelson - Command & Conquer Soundtrack Collection- Жанр: Score
Производитель диска: USA
Год выпуска диска: 2000
Аудио кодек: FLAC (*.flac)
Битрейт аудио: lossless
Тип рипа: tracks+.cue
Битрейт аудио: lossless
Продолжительность: 00:04:33:48
Источник: what.cd
По vgmdb.net: http://vgmdb.net/album/1750
-

Disc 1 - Command & Conquer

01. Frank Klepacki - Act on Instinct (2:53) 958 kBit/s
02. Frank Klepacki - No Mercy (3:21) 948 kBit/s
03. Frank Klepacki - Industrial One (2:53) 990 kBit/s
04. Frank Klepacki - Iron Fist (3:30) 942 kBit/s
05. Frank Klepacki - We Will Stop Them (3:10) 995 kBit/s
06. Frank Klepacki - Radio (3:01) 846 kBit/s
07. Frank Klepacki - On the Prowl (3:02) 902 kBit/s
08. Frank Klepacki - Re-con (4:23) 728 kBit/s
09. Frank Klepacki - Drone (4:32) 684 kBit/s
10. Frank Klepacki - In the Line of Fire (2:05) 811 kBit/s
11. Frank Klepacki - Prepare for Battle (3:29) 1034 kBit/s
12. Frank Klepacki - Depth Charge (4:15) 777 kBit/s
13. Frank Klepacki - Rain in the Night (2:34) 753 kBit/s
14. Frank Klepacki - Creeping Upon (3:38) 806 kBit/s
15. Frank Klepacki - Target (2:53) 777 kBit/s
16. Frank Klepacki - Just Do It Up (2:23) 895 kBit/s
17. Frank Klepacki - C&C Thang (3:13) 948 kBit/s
18. Frank Klepacki - To Be Feared (2:46) 876 kBit/s
19. Frank Klepacki - Drill (4:27) 741 kBit/s
20. Frank Klepacki - Full Stop (3:01) 1039 kBit/s
21. Frank Klepacki - In Trouble (3:32) 1090 kBit/s
22. Frank Klepacki - Air Strike (3:18) 970 kBit/s-

.log

EAC extraction logfile from 7. January 2007, 22:34 for CDFrank Klepacki / Command & Conquer
Used drive : PIONEER DVD-RW DVR-109 Adapter: 0 ID: 0Read mode : Secure with NO C2, accurate stream, disable cacheRead offset correction : 48Overread into Lead-In and Lead-Out : No
Used output format : Internal WAV Routines 44.100 Hz; 16 Bit; Stereo
Other options : Fill up missing offset samples with silence : Yes Delete leading and trailing silent blocks : No Native Win32 interface for Win NT & 2000
Track 1 Filename C:\Documents and Settings\Sataris\My Documents\Command and Conquer\01 - Act on Instinct.wav
Pre-gap length 0:00:02.00
Peak level 97.7 % Track quality 100.0 % Copy CRC D9A79A30 Copy OK
No errors occured
End of status report
------------------------------------------------------------
EAC extraction logfile from 7. January 2007, 23:04 for CDFrank Klepacki / Command & Conquer
Used drive : PIONEER DVD-RW DVR-109 Adapter: 0 ID: 0Read mode : Secure with NO C2, accurate stream, disable cacheRead offset correction : 48Overread into Lead-In and Lead-Out : No
Used output format : C:\Program Files\FLAC\flac.exe (User Defined Encoder) 128 kBit/s Additional command line options : -V -8 -T "artist=%a" -T "title=%t" -T "album=%g" -T "date=%y" -T "tracknumber=%n" -T "genre=%m" %s
Other options : Fill up missing offset samples with silence : Yes Delete leading and trailing silent blocks : No Native Win32 interface for Win NT & 2000
Track 1 Filename C:\Documents and Settings\Sataris\My Documents\Command and Conquer\01 - Act on Instinct.wav
Pre-gap length 0:00:02.00
Peak level 97.7 % Track quality 100.0 % Test CRC D9A79A30 Copy CRC D9A79A30 Copy OK
Track 2 Filename C:\Documents and Settings\Sataris\My Documents\Command and Conquer\02 - No Mercy.wav
Pre-gap length 0:00:01.61
Peak level 97.4 % Track quality 100.0 % Test CRC 1431EEED Copy CRC 1431EEED Copy OK
Track 3 Filename C:\Documents and Settings\Sataris\My Documents\Command and Conquer\03 - Industrial One.wav
Pre-gap length 0:00:01.46
Peak level 97.4 % Track quality 100.0 % Test CRC 226916F4 Copy CRC 226916F4 Copy OK
Track 4 Filename C:\Documents and Settings\Sataris\My Documents\Command and Conquer\04 - Iron Fist.wav
Pre-gap length 0:00:01.33
Peak level 99.1 % Track quality 100.0 % Test CRC F16B1406 Copy CRC F16B1406 Copy OK
Track 5 Filename C:\Documents and Settings\Sataris\My Documents\Command and Conquer\05 - We Will Stop Them.wav
Peak level 97.4 % Track quality 100.0 % Test CRC 36EB1DBB Copy CRC 36EB1DBB Copy OK
Track 6 Filename C:\Documents and Settings\Sataris\My Documents\Command and Conquer\06 - Radio.wav
Pre-gap length 0:00:01.34
Peak level 98.2 % Track quality 100.0 % Test CRC 2CFB1A1C Copy CRC 2CFB1A1C Copy OK
Track 7 Filename C:\Documents and Settings\Sataris\My Documents\Command and Conquer\07 - On the Prowl.wav
Pre-gap length 0:00:01.14
Peak level 97.8 % Track quality 100.0 % Test CRC F1DC0569 Copy CRC F1DC0569 Copy OK
Track 8 Filename C:\Documents and Settings\Sataris\My Documents\Command and Conquer\08 - Re-con.wav
Pre-gap length 0:00:01.14
Peak level 98.1 % Track quality 100.0 % Test CRC 9ECD9420 Copy CRC 9ECD9420 Copy OK
Track 9 Filename C:\Documents and Settings\Sataris\My Documents\Command and Conquer\09 - Drone.wav
Pre-gap length 0:00:01.40
Peak level 97.9 % Track quality 100.0 % Test CRC 930C29FB Copy CRC 930C29FB Copy OK
Track 10 Filename C:\Documents and Settings\Sataris\My Documents\Command and Conquer\10 - In the Line of Fire.wav
Pre-gap length 0:00:01.64
Peak level 98.3 % Track quality 100.0 % Test CRC 6F0E8675 Copy CRC 6F0E8675 Copy OK
Track 11 Filename C:\Documents and Settings\Sataris\My Documents\Command and Conquer\11 - Prepare for Battle.wav
Pre-gap length 0:00:01.46
Peak level 97.7 % Track quality 100.0 % Test CRC 990E8DC8 Copy CRC 990E8DC8 Copy OK
Track 12 Filename C:\Documents and Settings\Sataris\My Documents\Command and Conquer\12 - Depth Charge.wav
Pre-gap length 0:00:01.14
Peak level 100.0 % Track quality 99.9 % Test CRC A4C0C870 Copy CRC A4C0C870 Copy OK
Track 13 Filename C:\Documents and Settings\Sataris\My Documents\Command and Conquer\13 - Rain in the Night.wav
Pre-gap length 0:00:01.56
Peak level 98.0 % Track quality 100.0 % Test CRC F41C1C61 Copy CRC F41C1C61 Copy OK
Track 14 Filename C:\Documents and Settings\Sataris\My Documents\Command and Conquer\14 - Creeping Upon.wav
Pre-gap length 0:00:01.30
Peak level 97.7 % Track quality 100.0 % Test CRC 9E9A9DB8 Copy CRC 9E9A9DB8 Copy OK
Track 15 Filename C:\Documents and Settings\Sataris\My Documents\Command and Conquer\15 - Target.wav
Pre-gap length 0:00:01.24
Peak level 97.7 % Track quality 100.0 % Test CRC 1019FC00 Copy CRC 1019FC00 Copy OK
Track 16 Filename C:\Documents and Settings\Sataris\My Documents\Command and Conquer\16 - Just Do It Up.wav
Pre-gap length 0:00:01.32
Peak level 97.8 % Track quality 100.0 % Test CRC 89EB6F18 Copy CRC 89EB6F18 Copy OK
Track 17 Filename C:\Documents and Settings\Sataris\My Documents\Command and Conquer\17 - C&C Thang.wav
Pre-gap length 0:00:01.36
Peak level 98.1 % Track quality 99.9 % Test CRC C58D55CA Copy CRC C58D55CA Copy OK
Track 18 Filename C:\Documents and Settings\Sataris\My Documents\Command and Conquer\18 - To Be Feared.wav
Pre-gap length 0:00:01.54
Peak level 97.7 % Track quality 100.0 % Test CRC 0B68FDB7 Copy CRC 0B68FDB7 Copy OK
Track 19 Filename C:\Documents and Settings\Sataris\My Documents\Command and Conquer\19 - Drill.wav
Pre-gap length 0:00:04.33
Peak level 98.2 % Track quality 100.0 % Test CRC F5361FF0 Copy CRC F5361FF0 Copy OK
Track 20 Filename C:\Documents and Settings\Sataris\My Documents\Command and Conquer\20 - Full Stop.wav
Pre-gap length 0:00:02.01
Peak level 98.1 % Track quality 100.0 % Test CRC BDBE349F Copy CRC BDBE349F Copy OK
Track 21 Filename C:\Documents and Settings\Sataris\My Documents\Command and Conquer\21 - In Trouble.wav
Pre-gap length 0:00:01.93
Peak level 97.9 % Track quality 100.0 % Test CRC 0AB56483 Copy CRC 0AB56483 Copy OK
Track 22 Filename C:\Documents and Settings\Sataris\My Documents\Command and Conquer\22 - Air Strike.wav
Pre-gap length 0:00:01.02
Peak level 98.2 % Track quality 99.9 % Test CRC 61150B97 Copy CRC 61150B97 Copy OK
No errors occured
End of status report

.cue

REM GENRE GameREM DATE 2000REM DISCID 4910F516REM COMMENT "ExactAudioCopy v0.95b4"PERFORMER "Frank Klepacki"TITLE "Command & Conquer Soundtrack Collection Disc 1 - Command & Conquer"FILE "01. Act on Instinct.wav" WAVE TRACK 01 AUDIO TITLE "Act on Instinct" PERFORMER "Frank Klepacki" INDEX 01 00:00:00 TRACK 02 AUDIO TITLE "No Mercy" PERFORMER "Frank Klepacki" INDEX 00 02:51:24FILE "02. No Mercy.wav" WAVE INDEX 01 00:00:00 TRACK 03 AUDIO TITLE "Industrial One" PERFORMER "Frank Klepacki" INDEX 00 03:19:70FILE "03. Industrial One.wav" WAVE INDEX 01 00:00:00 TRACK 04 AUDIO TITLE "Iron Fist" PERFORMER "Frank Klepacki" INDEX 00 02:52:12FILE "04. Iron Fist.wav" WAVE INDEX 01 00:00:00FILE "05. We Will Stop Them.wav" WAVE TRACK 05 AUDIO TITLE "We Will Stop Them" PERFORMER "Frank Klepacki" INDEX 01 00:00:00 TRACK 06 AUDIO TITLE "Radio" PERFORMER "Frank Klepacki" INDEX 00 03:08:32FILE "06. Radio.wav" WAVE INDEX 01 00:00:00 TRACK 07 AUDIO TITLE "On the Prowl" PERFORMER "Frank Klepacki" INDEX 00 03:00:14FILE "07. On the Prowl.wav" WAVE INDEX 01 00:00:00 TRACK 08 AUDIO TITLE "Re-con" PERFORMER "Frank Klepacki" INDEX 00 03:01:06FILE "08. Re-con.wav" WAVE INDEX 01 00:00:00 TRACK 09 AUDIO TITLE "Drone" PERFORMER "Frank Klepacki" INDEX 00 04:21:33FILE "09. Drone.wav" WAVE INDEX 01 00:00:00 TRACK 10 AUDIO TITLE "In the Line of Fire" PERFORMER "Frank Klepacki" INDEX 00 04:30:37FILE "10. In the Line of Fire.wav" WAVE INDEX 01 00:00:00 TRACK 11 AUDIO TITLE "Prepare for Battle" PERFORMER "Frank Klepacki" INDEX 00 02:03:35FILE "11. Prepare for Battle.wav" WAVE INDEX 01 00:00:00 TRACK 12 AUDIO TITLE "Depth Charge" PERFORMER "Frank Klepacki" INDEX 00 03:27:74FILE "12. Depth Charge.wav" WAVE INDEX 01 00:00:00 TRACK 13 AUDIO TITLE "Rain in the Night" PERFORMER "Frank Klepacki" INDEX 00 04:13:33FILE "13. Rain in the Night.wav" WAVE INDEX 01 00:00:00 TRACK 14 AUDIO TITLE "Creeping Upon" PERFORMER "Frank Klepacki" INDEX 00 02:33:09FILE "14. Creeping Upon.wav" WAVE INDEX 01 00:00:00 TRACK 15 AUDIO TITLE "Target" PERFORMER "Frank Klepacki" INDEX 00 03:36:47FILE "15. Target.wav" WAVE INDEX 01 00:00:00 TRACK 16 AUDIO TITLE "Just Do It Up" PERFORMER "Frank Klepacki" INDEX 00 02:51:34FILE "16. Just Do It Up.wav" WAVE INDEX 01 00:00:00 TRACK 17 AUDIO TITLE "C&C Thang" PERFORMER "Frank Klepacki" INDEX 00 02:21:43FILE "17. C&C Thang.wav" WAVE INDEX 01 00:00:00 TRACK 18 AUDIO TITLE "To Be Feared" PERFORMER "Frank Klepacki" INDEX 00 03:11:26FILE "18. To Be Feared.wav" WAVE INDEX 01 00:00:00 TRACK 19 AUDIO TITLE "Drill" PERFORMER "Frank Klepacki" INDEX 00 02:41:38FILE "19. Drill.wav" WAVE INDEX 01 00:00:00 TRACK 20 AUDIO TITLE "Full Stop" PERFORMER "Frank Klepacki" INDEX 00 04:25:14FILE "20. Full Stop.wav" WAVE INDEX 01 00:00:00 TRACK 21 AUDIO TITLE "In Trouble" PERFORMER "Frank Klepacki" INDEX 00 02:59:32FILE "21. In Trouble.wav" WAVE INDEX 01 00:00:00 TRACK 22 AUDIO TITLE "Air Strike" PERFORMER "Frank Klepacki" INDEX 00 03:31:21FILE "22. Air Strike.wav" WAVE INDEX 01 00:00:00

.accurip

[CUETools log; Date: 09.09.2012 22:38:39; Version: 2.1.4][CTDB TOCID: NP5EkovxTsHIViBMwflXBxVn4cU-] found.Track | CTDB Status 1 | (1/1) Accurately ripped 2 | (1/1) Accurately ripped 3 | (1/1) Accurately ripped 4 | (1/1) Accurately ripped 5 | (1/1) Accurately ripped 6 | (1/1) Accurately ripped 7 | (1/1) Accurately ripped 8 | (1/1) Accurately ripped 9 | (1/1) Accurately ripped 10 | (1/1) Accurately ripped 11 | (1/1) Accurately ripped 12 | (1/1) Accurately ripped 13 | (1/1) Accurately ripped 14 | (1/1) Accurately ripped 15 | (1/1) Accurately ripped 16 | (1/1) Accurately ripped 17 | (1/1) Accurately ripped 18 | (1/1) Accurately ripped 19 | (1/1) Accurately ripped 20 | (1/1) Accurately ripped 21 | (1/1) Accurately ripped 22 | (1/1) Accurately ripped[AccurateRip ID: 0038e5c4-03906801-4910f516] found.Track [ CRC | V2 ] Status 01 [7f90c003|30440217] (09+00/20) Accurately ripped 02 [fdb74f9e|d60a45fb] (09+00/20) Accurately ripped 03 [1c552611|9e62d788] (09+00/20) Accurately ripped 04 [b71d3bfb|42e9f3bc] (09+00/20) Accurately ripped 05 [d56f9b9a|fd6ce66b] (09+00/20) Accurately ripped 06 [a48ea6c1|2a9ba99a] (09+00/20) Accurately ripped 07 [1f44219f|2574aeff] (09+00/20) Accurately ripped 08 [aba9d677|c54d03cd] (09+00/19) Accurately ripped 09 [bca92337|d34e5ee2] (09+00/19) Accurately ripped 10 [b2b56e34|0fa93dcf] (09+00/19) Accurately ripped 11 [3c932c6c|e5f40437] (09+00/19) Accurately ripped 12 [3a1cf0f2|3e7d1887] (09+00/20) Accurately ripped 13 [6dbebfef|00e0564d] (09+00/18) Accurately ripped 14 [bd494f9f|2b4c34b1] (09+00/20) Accurately ripped 15 [f0575ae1|4a14601d] (09+00/20) Accurately ripped 16 [4e1e8807|9995bf55] (09+00/20) Accurately ripped 17 [7784dc61|f7f269cf] (09+00/20) Accurately ripped 18 [11f58210|375eb19a] (09+00/20) Accurately ripped 19 [f379f8e0|eb301d5d] (09+00/20) Accurately ripped 20 [36edccd1|444cf4ce] (09+00/19) Accurately ripped 21 [4b5a1cf2|0db722c6] (09+00/20) Accurately ripped 22 [a4843b45|8287651e] (09+00/20) Accurately rippedOffsetted by 510: 01 [9afd6e41] (06/20) Accurately ripped 02 [fd0e2b38] (06/20) Accurately ripped 03 [028a7f61] (06/20) Accurately ripped 04 [1fc17bb5] (06/20) Accurately ripped 05 [64b08d74] (06/20) Accurately ripped 06 [4efdce15] (06/20) Accurately ripped 07 [658daabf] (06/20) Accurately ripped 08 [dcc5f349] (05/19) Accurately ripped 09 [00814ccd] (05/19) Accurately ripped 10 [c33f0454] (05/19) Accurately ripped 11 [502607ac] (06/19) Accurately ripped 12 [7d217644] (06/20) Accurately ripped 13 [521a59ab] (06/18) Accurately ripped 14 [34d18921] (06/20) Accurately ripped 15 [5fbb14f3] (06/20) Accurately ripped 16 [947f9adf] (06/20) Accurately ripped 17 [fbf4f28d] (06/20) Accurately ripped 18 [4f750e22] (06/20) Accurately ripped 19 [64da3e48] (06/20) Accurately ripped 20 [d4b2d685] (06/19) Accurately ripped 21 [b2f80c5e] (06/20) Accurately ripped 22 [81939e55] (06/20) Accurately rippedOffsetted by 906: 01 [9e36b64d] (03/20) Accurately ripped 02 [5ceb361c] (03/20) Accurately ripped 03 [be538b81] (03/20) Accurately ripped 04 [019255d9] (03/20) Accurately ripped 05 [b2cae2d8] (03/20) Accurately ripped 06 [21a26b1d] (03/20) Accurately ripped 07 [59dedbff] (03/20) Accurately ripped 08 [6c513cdd] (03/19) Accurately ripped 09 [29231ec9] (03/19) Accurately ripped 10 [b1f82794] (03/19) Accurately ripped 11 [837cf42c] (02/19) Accurately ripped 12 [9f18ecd8] (03/20) Accurately ripped 13 [8af20a43] (03/18) Accurately ripped 14 [5e6e8295] (03/20) Accurately ripped 15 [40c33f07] (03/20) Accurately ripped 16 [6dc7f7cf] (03/20) Accurately ripped 17 [ae15c485] (03/20) Accurately ripped 18 [d68ccc36] (03/20) Accurately ripped 19 [20461fd8] (03/20) Accurately ripped 20 [af941d4d] (02/19) Accurately ripped 21 [b21b56d6] (03/20) Accurately ripped 22 [a2ae9ff5] (03/20) Accurately rippedOffsetted by 56: 01 [c5d6e93b] (02/20) Accurately ripped 02 [b35a72c6] (02/20) Accurately ripped 03 [93faa151] (02/20) Accurately ripped 04 [fdd5eba3] (02/20) Accurately ripped 05 [c4094fc2] (02/20) Accurately ripped 06 [5ae92991] (02/20) Accurately ripped 07 [e4b9a21f] (02/20) Accurately ripped 08 [1a77b77f] (02/19) Accurately ripped 09 [b8102ecf] (02/19) Accurately ripped 10 [ebbd82b4] (02/19) Accurately ripped 11 [0d88316c] (02/19) Accurately ripped 12 [da1163fa] (02/20) Accurately ripped 13 [0e595f5f] (00/18) No match 14 [41e0cd67] (02/20) Accurately ripped 15 [871d08e9] (02/20) Accurately ripped 16 [4dd0d867] (02/20) Accurately ripped 17 [7c059f91] (02/20) Accurately ripped 18 [1ab83818] (02/20) Accurately ripped 19 [0dfb0180] (02/20) Accurately ripped 20 [a8a10d21] (02/19) Accurately ripped 21 [b0141d22] (02/20) Accurately ripped 22 [323fa585] (02/20) Accurately ripped
Track Peak [ CRC32 ] [W/O NULL] [ LOG ] -- 100,0 [D288DB2D] [4BD44CCD] 01 97,7 [D9A79A30] [A0A08171] CRC32 02 97,4 [1431EEED] [AED665A1] [D9A79A30]: CRC32 for track 1 03 97,4 [226916F4] [98186449] [1431EEED]: CRC32 for track 2 04 99,1 [F16B1406] [EF62251B] [226916F4]: CRC32 for track 3 05 97,4 [36EB1DBB] [CAB78F49] [F16B1406]: CRC32 for track 4 06 98,2 [2CFB1A1C] [94447ABA] [36EB1DBB]: CRC32 for track 5 07 97,8 [F1DC0569] [908B2BE1] [2CFB1A1C]: CRC32 for track 6 08 98,1 [9ECD9420] [6F960DF8] [F1DC0569]: CRC32 for track 7 09 97,9 [930C29FB] [ED37A38D] [9ECD9420]: CRC32 for track 8 10 98,3 [6F0E8675] [0357FF12] [930C29FB]: CRC32 for track 9 11 97,7 [990E8DC8] [6757200B] [6F0E8675]: CRC32 for track 10 12 100,0 [A4C0C870] [24844E72] [990E8DC8]: CRC32 for track 11 13 98,0 [F41C1C61] [E8D15642] [A4C0C870]: CRC32 for track 12 14 97,7 [9E9A9DB8] [C5554E46] [F41C1C61]: CRC32 for track 13 15 97,7 [1019FC00] [E8FFBA73] [9E9A9DB8]: CRC32 for track 14 16 97,8 [89EB6F18] [E77FB2D0] [1019FC00]: CRC32 for track 15 17 98,1 [C58D55CA] [ADF5C416] [89EB6F18]: CRC32 for track 16 18 97,7 [0B68FDB7] [0464C250] [C58D55CA]: CRC32 for track 17 19 98,2 [F5361FF0] [70784893] [0B68FDB7]: CRC32 for track 18 20 98,1 [BDBE349F] [92AD48E9] [F5361FF0]: CRC32 for track 19 21 97,9 [0AB56483] [F2A745E7] [BDBE349F]: CRC32 for track 20 22 98,2 [61150B97] [CD01CE86] [0AB56483]: CRC32 for track 21

.auCDtect

-----------------------
DON'T MODIFY THIS FILE
-----------------------
PERFORMER: auCDtect Task Manager, ver. 1.5.1RC6 build 1.5.1.7Copyright (c) 2008-2010 y-soft. All rights reservedhttp://y-soft.org
ANALYZER: auCDtect: CD records authenticity detector, version 0.8.2Copyright (c) 2004 Oleg Berngardt. All rights reserved.Copyright (c) 2004 Alexander Djourik. All rights reserved.
FILE: 01. Act on Instinct.flac Size: 20747831 Hash: CEC4E5180899C5367B567F49B2D5DAB2 Accuracy: -m0 Conclusion: CDDA 100% Signature: F3A5FD9325291D4F5D48C51032C49F156FD9CEA4FILE: 02. No Mercy.flac Size: 23897422 Hash: 61150376A2344A3A3A0A09842CAD92CA Accuracy: -m0 Conclusion: CDDA 100% Signature: 8F71452C13F8FF494D5E2352F991CB89EADD661EFILE: 03. Industrial One.flac Size: 21494616 Hash: 7A43E37AC2540E48C6AA5F483531B846 Accuracy: -m0 Conclusion: CDDA 100% Signature: 4A3CA2B0F7AA578B101BB2E3F2C9B97A55A6496CFILE: 04. Iron Fist.flac Size: 24818084 Hash: 213DFAEC03C4DDFB64D059833C06E6BB Accuracy: -m0 Conclusion: CDDA 100% Signature: 8EB0152A872E5AA6DC39D346AF8755603F0B044AFILE: 05. We Will Stop Them.flac Size: 23635439 Hash: 6968F29BF03CBA6756375776FE17D201 Accuracy: -m0 Conclusion: CDDA 100% Signature: 74E716E3BD7BE5B2479F2450603C4A2B2430C724FILE: 06. Radio.flac Size: 19211150 Hash: D490ABEA986E5DA2A5FE7B76328DE34B Accuracy: -m0 Conclusion: CDDA 100% Signature: 565C9C99235C077ED671B3DBAA7C638893F165D4FILE: 07. On the Prowl.flac Size: 20587220 Hash: 4AED630B7D831DD34838AB38F8B866AA Accuracy: -m0 Conclusion: CDDA 100% Signature: 59034D11CC93B79F148214EC6AFDFBB02FA7C69DFILE: 08. Re-con.flac Size: 23950534 Hash: E54A97A6D7C49DDABC26704FC032C2F8 Accuracy: -m0 Conclusion: CDDA 100% Signature: 179C31BC238EB0A435DF6A99C6065CADBB328ECEFILE: 09. Drone.flac Size: 23293110 Hash: CA9E24CEE7040467E40CC6063D4EEB5A Accuracy: -m0 Conclusion: CDDA 100% Signature: 430BD983A2F9CF9121661C32AEED0693B1DE8D3CFILE: 10. In the Line of Fire.flac Size: 12703373 Hash: B9C805A7D12855223BE5D720A0DEA2B6 Accuracy: -m0 Conclusion: CDDA 100% Signature: B309AE50A53903E63EF275770A6F8935A6E7A58BFILE: 11. Prepare for Battle.flac Size: 27072796 Hash: 163F46E8A2E19F32B26A4271AC489C95 Accuracy: -m0 Conclusion: CDDA 99% Signature: E76037E7AED5D92D609AA368E048419F0D447A37FILE: 12. Depth Charge.flac Size: 24784369 Hash: AB17C41FE1BD1E7B67B782D26E68BB35 Accuracy: -m0 Conclusion: CDDA 100% Signature: 09ABD5CEEDCE6F84457F0F413E6D6916B6051193FILE: 13. Rain in the Night.flac Size: 14558750 Hash: 98C03FAF09B4A76AAAFEA6544BEF2F55 Accuracy: -m0 Conclusion: CDDA 100% Signature: A51D0BA37009BAA42622728877531F484B93AFBEFILE: 14. Creeping Upon.flac Size: 21978472 Hash: 53A3414ED4DCB6129C744CF5CD0A9F9F Accuracy: -m0 Conclusion: CDDA 100% Signature: 422664D8F0EBDA7E92FE834636679305D2FC2CE2FILE: 15. Target.flac Size: 16819532 Hash: 3597AFB6A72F2BF4B15BF6D718298C0D Accuracy: -m0 Conclusion: CDDA 100% Signature: 721CAD51E05BDB704786692A7DB61FA271882C2CFILE: 16. Just Do It Up.flac Size: 16022592 Hash: A84FBBAF6D78940357DE98C0727278B6 Accuracy: -m0 Conclusion: CDDA 100% Signature: 4E51A383B03DB420FBBC09D8660381BAB419CC90FILE: 17. C&C Thang.flac Size: 22882635 Hash: 92C345E18C4BE600D85BACCEBE806B28 Accuracy: -m0 Conclusion: CDDA 100% Signature: C67D1582761180D32AC3C916951EDE79AAE25B2DFILE: 18. To Be Feared.flac Size: 18191966 Hash: 431C579F263EABFF602FC8FE8FD1FCE6 Accuracy: -m0 Conclusion: CDDA 99% Signature: B2C7F79441FC4D6EB201CABB3FED1EFCC0B66791FILE: 19. Drill.flac Size: 24785961 Hash: 00B35B5EEED780D6FA14C054B4AD3C31 Accuracy: -m0 Conclusion: CDDA 100% Signature: 66216D208AAF5323ACD78E3D4EC29520CFA1D32FFILE: 20. Full Stop.flac Size: 23591778 Hash: 69AFED25963BAED5D3B07CBFA7E85356 Accuracy: -m0 Conclusion: CDDA 100% Signature: 6007E1CC469C6D94F2D08865D1F3CC4CDA59C256FILE: 21. In Trouble.flac Size: 28948657 Hash: 59557A2443946B22D482C6C589E7A13D Accuracy: -m0 Conclusion: CDDA 100% Signature: 40D85E272C7FC60A680088299B26CE498C53BACDFILE: 22. Air Strike.flac Size: 24020724 Hash: 90DFDC8711D6BC6C49AD0C639BAF68DA Accuracy: -m0 Conclusion: CDDA 100% Signature: 42395373A14B6EE083162D00D5AC0E3D256EB93D

Disc 2 - Red Alert

01. Frank Klepacki - Hell March (6:24) 885 kBit/s
02. Frank Klepacki - Radio (4:05) 912 kBit/s
03. Frank Klepacki - Crush (3:49) 928 kBit/s
04. Frank Klepacki - Roll Out (3:55) 836 kBit/s
05. Frank Klepacki - Mud (4:49) 693 kBit/s
06. Frank Klepacki - Twin Cannon (3:56) 754 kBit/s
07. Frank Klepacki - Face the Enemy (5:36) 798 kBit/s
08. Frank Klepacki - Run (5:13) 727 kBit/s
09. Frank Klepacki - Terminate (5:21) 811 kBit/s
10. Frank Klepacki - Big Foot (5:15) 857 kBit/s
11. Frank Klepacki - Workmen (4:44) 911 kBit/s
12. Frank Klepacki - Militant Force (1:50) 838 kBit/s
13. Frank Klepacki - Dense (5:03) 735 kBit/s
14. Frank Klepacki - Vector (4:18) 829 kBit/s
15. Frank Klepacki - Smash (8:08) 831 kBit/s-

.log

EAC extraction logfile from 15. December 2006, 21:47 for CDFrank Klepacki / Command & Conquer Red Alert
Used drive : HL-DT-STDVD-ROM GDR8164B Adapter: 1 ID: 0Read mode : Secure with NO C2, accurate stream, disable cacheRead offset correction : 102Overread into Lead-In and Lead-Out : No
Used output format : Internal WAV Routines 44.100 Hz; 16 Bit; Stereo
Other options : Fill up missing offset samples with silence : Yes Delete leading and trailing silent blocks : No Installed external ASPI interface
Track 1 Filename C:\My Music Files\New Rips\12-15-2006\Command & Conquer Soundtrack Collection\Disc 2 ~ C&C - Red Alert\01 - Hell March.wav
Pre-gap length 0:00:02.00
Peak level 95.8 % Track quality 100.0 % Test CRC 98EC04F6 Copy CRC 98EC04F6 Copy OK
Track 2 Filename C:\My Music Files\New Rips\12-15-2006\Command & Conquer Soundtrack Collection\Disc 2 ~ C&C - Red Alert\02 - Radio.wav
Pre-gap length 0:00:01.84
Peak level 100.0 % Track quality 100.0 % Test CRC 87E74F05 Copy CRC 87E74F05 Copy OK
Track 3 Filename C:\My Music Files\New Rips\12-15-2006\Command & Conquer Soundtrack Collection\Disc 2 ~ C&C - Red Alert\03 - Crush.wav
Pre-gap length 0:00:01.06
Peak level 100.0 % Track quality 99.9 % Test CRC 0816569D Copy CRC 0816569D Copy OK
Track 4 Filename C:\My Music Files\New Rips\12-15-2006\Command & Conquer Soundtrack Collection\Disc 2 ~ C&C - Red Alert\04 - Roll Out.wav
Pre-gap length 0:00:02.53
Peak level 98.7 % Track quality 100.0 % Test CRC 194771ED Copy CRC 194771ED Copy OK
Track 5 Filename C:\My Music Files\New Rips\12-15-2006\Command & Conquer Soundtrack Collection\Disc 2 ~ C&C - Red Alert\05 - Mud.wav
Pre-gap length 0:00:02.00
Peak level 94.7 % Track quality 99.9 % Test CRC 85D602A2 Copy CRC 85D602A2 Copy OK
Track 6 Filename C:\My Music Files\New Rips\12-15-2006\Command & Conquer Soundtrack Collection\Disc 2 ~ C&C - Red Alert\06 - Twin Cannon.wav
Pre-gap length 0:00:02.36
Peak level 93.6 % Track quality 100.0 % Test CRC 64DEE154 Copy CRC 64DEE154 Copy OK
Track 7 Filename C:\My Music Files\New Rips\12-15-2006\Command & Conquer Soundtrack Collection\Disc 2 ~ C&C - Red Alert\07 - Face the Enemy.wav
Peak level 99.4 % Track quality 100.0 % Test CRC 377A7F7F Copy CRC 377A7F7F Copy OK
Track 8 Filename C:\My Music Files\New Rips\12-15-2006\Command & Conquer Soundtrack Collection\Disc 2 ~ C&C - Red Alert\08 - Run.wav
Peak level 99.7 % Track quality 100.0 % Test CRC 81CE86D3 Copy CRC 81CE86D3 Copy OK
Track 9 Filename C:\My Music Files\New Rips\12-15-2006\Command & Conquer Soundtrack Collection\Disc 2 ~ C&C - Red Alert\09 - Terminate.wav
Pre-gap length 0:00:01.46
Peak level 98.9 % Track quality 100.0 % Test CRC 22122369 Copy CRC 22122369 Copy OK
Track 10 Filename C:\My Music Files\New Rips\12-15-2006\Command & Conquer Soundtrack Collection\Disc 2 ~ C&C - Red Alert\10 - Big Foot.wav
Pre-gap length 0:00:02.33
Peak level 96.2 % Track quality 100.0 % Test CRC 39532F2F Copy CRC 39532F2F Copy OK
Track 11 Filename C:\My Music Files\New Rips\12-15-2006\Command & Conquer Soundtrack Collection\Disc 2 ~ C&C - Red Alert\11 - Workmen.wav
Pre-gap length 0:00:01.04
Peak level 100.0 % Track quality 100.0 % Test CRC 1E2A79DA Copy CRC 1E2A79DA Copy OK
Track 12 Filename C:\My Music Files\New Rips\12-15-2006\Command & Conquer Soundtrack Collection\Disc 2 ~ C&C - Red Alert\12 - Militant Force.wav
Peak level 100.0 % Track quality 100.0 % Test CRC A2912440 Copy CRC A2912440 Copy OK
Track 13 Filename C:\My Music Files\New Rips\12-15-2006\Command & Conquer Soundtrack Collection\Disc 2 ~ C&C - Red Alert\13 - Dense.wav
Peak level 89.7 % Track quality 100.0 % Test CRC DAB83AC4 Copy CRC DAB83AC4 Copy OK
Track 14 Filename C:\My Music Files\New Rips\12-15-2006\Command & Conquer Soundtrack Collection\Disc 2 ~ C&C - Red Alert\14 - Vector.wav
Pre-gap length 0:00:02.06
Peak level 99.9 % Track quality 100.0 % Test CRC 1319E95F Copy CRC 1319E95F Copy OK
Track 15 Filename C:\My Music Files\New Rips\12-15-2006\Command & Conquer Soundtrack Collection\Disc 2 ~ C&C - Red Alert\15 - Smash.wav
Peak level 100.0 % Track quality 100.0 % Test CRC 169125ED Copy CRC 169125ED Copy OK
No errors occured
End of status report

.cue

REM GENRE GameREM DATE 1996REM DISCID E310FA0FREM COMMENT "ExactAudioCopy v0.95b4"PERFORMER "Frank Klepacki"TITLE "Command & Conquer Soundtrack Collection Disc 2 - Red Alert"FILE "01. Hell March.wav" WAVE TRACK 01 AUDIO TITLE "Hell March" PERFORMER "Frank Klepacki" INDEX 01 00:00:00 TRACK 02 AUDIO TITLE "Radio" PERFORMER "Frank Klepacki" INDEX 00 06:22:27FILE "02. Radio.wav" WAVE INDEX 01 00:00:00 TRACK 03 AUDIO TITLE "Crush" PERFORMER "Frank Klepacki" INDEX 00 04:04:12FILE "03. Crush.wav" WAVE INDEX 01 00:00:00 TRACK 04 AUDIO TITLE "Roll Out" PERFORMER "Frank Klepacki" INDEX 00 03:46:70FILE "04. Roll Out.wav" WAVE INDEX 01 00:00:00 TRACK 05 AUDIO TITLE "Mud" PERFORMER "Frank Klepacki" INDEX 00 03:52:73FILE "05. Mud.wav" WAVE INDEX 01 00:00:00 TRACK 06 AUDIO TITLE "Twin Cannon" PERFORMER "Frank Klepacki" INDEX 00 04:46:37FILE "06. Twin Cannon.wav" WAVE INDEX 01 00:00:00FILE "07. Face the Enemy.wav" WAVE TRACK 07 AUDIO TITLE "Face the Enemy" PERFORMER "Frank Klepacki" INDEX 01 00:00:00FILE "08. Run.wav" WAVE TRACK 08 AUDIO TITLE "Run" PERFORMER "Frank Klepacki" INDEX 01 00:00:00 TRACK 09 AUDIO TITLE "Terminate" PERFORMER "Frank Klepacki" INDEX 00 05:11:40FILE "09. Terminate.wav" WAVE INDEX 01 00:00:00 TRACK 10 AUDIO TITLE "Big Foot" PERFORMER "Frank Klepacki" INDEX 00 05:18:18FILE "10. Big Foot.wav" WAVE INDEX 01 00:00:00 TRACK 11 AUDIO TITLE "Workmen" PERFORMER "Frank Klepacki" INDEX 00 05:14:12FILE "11. Workmen.wav" WAVE INDEX 01 00:00:00FILE "12. Militant Force.wav" WAVE TRACK 12 AUDIO TITLE "Militant Force" PERFORMER "Frank Klepacki" INDEX 01 00:00:00FILE "13. Dense.wav" WAVE TRACK 13 AUDIO TITLE "Dense" PERFORMER "Frank Klepacki" INDEX 01 00:00:00 TRACK 14 AUDIO TITLE "Vector" PERFORMER "Frank Klepacki" INDEX 00 05:00:42FILE "14. Vector.wav" WAVE INDEX 01 00:00:00FILE "15. Smash.wav" WAVE TRACK 15 AUDIO TITLE "Smash" PERFORMER "Frank Klepacki" INDEX 01 00:00:00

.accurip

[CUETools log; Date: 09.09.2012 22:53:36; Version: 2.1.4][CTDB TOCID: X3YVxutQY98psnelJ.nP6rbaHIs-] found.Track | CTDB Status 1 | (6/6) Accurately ripped 2 | (6/6) Accurately ripped 3 | (6/6) Accurately ripped 4 | (6/6) Accurately ripped 5 | (6/6) Accurately ripped 6 | (6/6) Accurately ripped 7 | (6/6) Accurately ripped 8 | (6/6) Accurately ripped 9 | (6/6) Accurately ripped 10 | (6/6) Accurately ripped 11 | (6/6) Accurately ripped 12 | (6/6) Accurately ripped 13 | (6/6) Accurately ripped 14 | (6/6) Accurately ripped 15 | (2/6) Accurately ripped, or (4/6) differs in 69 samples @04:16:37,04:23:46,04:23:68-04:23:69,04:24:15-04:24:16,04:25:71[AccurateRip ID: 0026e0d3-01b7751a-e310fa0f] found.Track [ CRC | V2 ] Status 01 [b0c7484c|75f810d4] (05+00/31) Accurately ripped 02 [2626e1d1|d784999e] (05+00/31) Accurately ripped 03 [b277002c|89f6e337] (05+00/31) Accurately ripped 04 [52bd75b3|3cdf5b33] (05+00/31) Accurately ripped 05 [6a95bb21|52a3a036] (05+00/31) Accurately ripped 06 [525a99d7|8a9db7ab] (05+00/31) Accurately ripped 07 [e29f7865|11c56798] (05+00/31) Accurately ripped 08 [46ccf6b2|a1816fc3] (05+00/31) Accurately ripped 09 [f49267cd|9781997d] (05+00/31) Accurately ripped 10 [088df378|0620cb08] (05+00/31) Accurately ripped 11 [19dd380c|16f6fae8] (05+00/31) Accurately ripped 12 [9737463b|9cc21bee] (05+00/31) Accurately ripped 13 [d3a086e9|54e5dfd8] (05+00/31) Accurately ripped 14 [dc43ae0d|0b929aa2] (05+00/31) Accurately ripped 15 [7384072b|ad619ca4] (05+00/30) Accurately rippedOffsetted by -502: 01 [e64baa10] (07/31) Accurately ripped 02 [21b2a0bd] (07/31) Accurately ripped 03 [c4502d80] (07/31) Accurately ripped 04 [7ddc87bd] (06/31) Accurately ripped 05 [857d01cf] (06/31) Accurately ripped 06 [119d1906] (06/31) Accurately ripped 07 [68f79480] (06/31) Accurately ripped 08 [908eefce] (06/31) Accurately ripped 09 [0f5259d1] (06/31) Accurately ripped 10 [a7e0f2e2] (06/31) Accurately ripped 11 [ea4d07d2] (06/31) Accurately ripped 12 [1c73ed6d] (06/31) Accurately ripped 13 [8b41de5d] (06/31) Accurately ripped 14 [7f846be5] (06/31) Accurately ripped 15 [eb86663d] (06/30) Accurately rippedOffsetted by 399: 01 [e0813ff2] (02/31) Accurately ripped 02 [4de63733] (02/31) Accurately ripped 03 [3e495d2a] (02/31) Accurately ripped 04 [a3351542] (02/31) Accurately ripped 05 [a2b726a6] (02/31) Accurately ripped 06 [83148515] (02/31) Accurately ripped 07 [f667b80e] (02/31) Accurately ripped 08 [20109f5c] (02/31) Accurately ripped 09 [bb9d07d3] (02/31) Accurately ripped 10 [33bcaf17] (02/31) Accurately ripped 11 [f63bef35] (02/31) Accurately ripped 12 [dc3b9786] (02/31) Accurately ripped 13 [9f974b7d] (02/31) Accurately ripped 14 [3a81d634] (02/31) Accurately ripped 15 [958f1ceb] (02/30) Accurately rippedOffsetted by -1299: 01 [c67b29be] (17/31) Accurately ripped 02 [4e21d577] (17/31) Accurately ripped 03 [3652cba6] (17/31) Accurately ripped 04 [61f0caa0] (18/31) Accurately ripped 05 [46213a70] (18/31) Accurately ripped 06 [a7733767] (18/31) Accurately ripped 07 [54774eca] (18/31) Accurately ripped 08 [d6a3c2a4] (18/31) Accurately ripped 09 [f1606a5f] (18/31) Accurately ripped 10 [7257f895] (18/31) Accurately ripped 11 [61978947] (18/31) Accurately ripped 12 [ec6aa95c] (18/31) Accurately ripped 13 [65583532] (18/31) Accurately ripped 14 [7e0001c3] (18/31) Accurately ripped 15 [65aa529d] (00/30) No match (V2 was not tested)
Track Peak [ CRC32 ] [W/O NULL] [ LOG ] -- 100,0 [D05C9589] [CF6BFF36] 01 95,8 [98EC04F6] [B09F6F74] CRC32 02 100,0 [87E74F05] [480BE773] CRC32 03 100,0 [0816569D] [03914376] CRC32 04 98,7 [194771ED] [ADD32473] CRC32 05 94,7 [85D602A2] [76ABA088] CRC32 06 93,6 [64DEE154] [019F2171] CRC32 07 99,4 [377A7F7F] [E7A11C47] CRC32 08 99,7 [81CE86D3] [D5602438] CRC32 09 98,8 [22122369] [B428B1BB] CRC32 10 96,2 [39532F2F] [602620C7] CRC32 11 100,0 [1E2A79DA] [5932FF69] CRC32 12 100,0 [A2912440] [826D95A0] CRC32 13 89,7 [DAB83AC4] [5B73F05A] CRC32 14 99,9 [1319E95F] [7C3DF4E5] CRC32 15 100,0 [169125ED] [336C0064] CRC32

.auCDtect

-----------------------
DON'T MODIFY THIS FILE
-----------------------
PERFORMER: auCDtect Task Manager, ver. 1.5.1RC6 build 1.5.1.7Copyright (c) 2008-2010 y-soft. All rights reservedhttp://y-soft.org
ANALYZER: auCDtect: CD records authenticity detector, version 0.8.2Copyright (c) 2004 Oleg Berngardt. All rights reserved.Copyright (c) 2004 Alexander Djourik. All rights reserved.
FILE: 01. Hell March.flac Size: 42575586 Hash: 45D7247D51F9EC2324B39DEF8A6041B3 Accuracy: -m0 Conclusion: CDDA 100% Signature: 9A17181C23301CD4C2973D88742CDA8EC0D8DEB4FILE: 02. Radio.flac Size: 28014178 Hash: 837775D5027C6AEF3B477EEC4A5CB01C Accuracy: -m0 Conclusion: CDDA 100% Signature: C4709343AE2C502C1A9A29C7D6DBD10A23D7433AFILE: 03. Crush.flac Size: 26666667 Hash: 4983F0AEA8EB1FC6B31FB1DFE3507A7D Accuracy: -m0 Conclusion: CDDA 100% Signature: 001106ECFD56837CDCFA3A48F172596DC2FD3BBDFILE: 04. Roll Out.flac Size: 24629100 Hash: 4ECE5FCAFFD0E53AC4A7DB7C32BDEA8C Accuracy: -m0 Conclusion: CDDA 99% Signature: 65F6FCF8D7EF956592F822D438A7406CE82FD282FILE: 05. Mud.flac Size: 25084690 Hash: 5952F3F87F3AD18F5894A62C64207E6B Accuracy: -m0 Conclusion: CDDA 100% Signature: 1EB4ACFE700AD0876A37CACEEE4C7DB8598042FDFILE: 06. Twin Cannon.flac Size: 22268554 Hash: D13280E7EAA76E5B2D88C3C4DF0BBCCB Accuracy: -m0 Conclusion: CDDA 100% Signature: 3225018E464BC9880164D4B0A7B9FAE580C4E9F1FILE: 07. Face the Enemy.flac Size: 33615455 Hash: C76C734D5BC7EC2BE3FA4FB10894DBAD Accuracy: -m0 Conclusion: CDDA 100% Signature: 56D1026405255ADAC0FC10C9B44CD63081226213FILE: 08. Run.flac Size: 28496783 Hash: 7618D3A851DD90908C7C004125D5CFA1 Accuracy: -m0 Conclusion: CDDA 100% Signature: 41F8937924D790E00A6C78A5A645F9CE8CA66E78FILE: 09. Terminate.flac Size: 32548773 Hash: FEDB0B53B4C757FB719DD07BDC2B690F Accuracy: -m0 Conclusion: CDDA 99% Signature: 77D0F6542017D61CC7201AD12B9442EC73C2A7E7FILE: 10. Big Foot.flac Size: 33807621 Hash: A4371BC25F5EFFAA51B2C424C6A1252B Accuracy: -m0 Conclusion: CDDA 99% Signature: 251A41F2C8182A621E38E4C677B49195EE82665EFILE: 11. Workmen.flac Size: 32425072 Hash: 18CF5F793CE041E9944C94B920D78B41 Accuracy: -m0 Conclusion: CDDA 100% Signature: 5D4726A70DA8E1A431C91D436249807104CD5D34FILE: 12. Militant Force.flac Size: 11598048 Hash: 98ACD1DD110EA1096768523119AF7D73 Accuracy: -m0 Conclusion: CDDA 100% Signature: 47EB58173D7CEFD7A72610E1F9CD1DC5ADB7AE83FILE: 13. Dense.flac Size: 27865020 Hash: 1518735176665EB68CD88E1DA3694C48 Accuracy: -m0 Conclusion: CDDA 99% Signature: 7FA568806F93B5BD848C08CB9F40C62CAE12BD1AFILE: 14. Vector.flac Size: 26824077 Hash: EFADF0928494FA3C49E5C81A09EDA83C Accuracy: -m0 Conclusion: CDDA 99% Signature: B8CE92C94F335AA0BD5450622A5F00F85DF7CB55FILE: 15. Smash.flac Size: 50711341 Hash: FC068521098CA8ED1810AEE6F9436E3A Accuracy: -m0 Conclusion: CDDA 100% Signature: 9E7492F44FFA707CC870687B9727695577334C81

Disc 3 - Tiberian Sun

01. Frank Klepacki - Timebomb (2:08) 667 kBit/s
02. Jarrid Mendelson - Pharotek (4:41) 882 kBit/s
03. Jarrid Mendelson - Lone Trooper (4:42) 762 kBit/s
04. Jarrid Mendelson - Scouting (4:17) 871 kBit/s
05. Frank Klepacki - Infrared (4:31) 765 kBit/s
06. Frank Klepacki & Jarrid Mendelson - Flurry (4:15) 681 kBit/s
07. Frank Klepacki & Jarrid Mendelson - Mutants (4:16) 753 kBit/s
08. Jarrid Mendelson - Gloom (4:02) 751 kBit/s
09. Jarrid Mendelson - Heroism (4:03) 906 kBit/s
10. Frank Klepacki - Approach (4:43) 641 kBit/s
11. Frank Klepacki & Jarrid Mendelson - Dusk Hour (4:18) 597 kBit/s
12. Jarrid Mendelson - The Defense (4:05) 775 kBit/s
13. Frank Klepacki - Mad Rap (4:33) 798 kBit/s
14. Frank Klepacki - Valves (4:23) 781 kBit/s
15. Frank Klepacki - What Lurks (5:18) 743 kBit/s
16. Frank Klepacki - Score (1:49) 944 kBit/s-

.log

EAC extraction logfile from 25. July 2007, 10:50 for CDFrank Klepacki / Tiberian Sun Soundtrack
Used drive : PIONEER DVD-RW DVR-109 Adapter: 3 ID: 0Read mode : Secure with NO C2, accurate stream, disable cacheRead offset correction : 48Overread into Lead-In and Lead-Out : No
Used output format : C:\Program Files\Exact Audio Copy\flac.exe (User Defined Encoder) 192 kBit/s Additional command line options : -8 -A tukey(0.25) -A gauss(0.1875) -b 4096 -V -T "artist=%a" -T "title=%t" -T "album=%g" -T "date=%y" -T "tracknumber=%n" -T "genre=%m" %s --sector-align
Other options : Fill up missing offset samples with silence : Yes Delete leading and trailing silent blocks : No Installed external ASPI interface
Track 1 Filename C:\Music\Command & Conquer - Tiberian Sun Soundtrack\01 - Frank Klepacki - Timebomb.wav
Pre-gap length 0:00:02.00
Peak level 75.3 % Track quality 99.9 % Test CRC 7C1B82F1 Copy CRC 7C1B82F1 Copy OK
Track 2 Filename C:\Music\Command & Conquer - Tiberian Sun Soundtrack\02 - Frank Klepacki - Pharotek.wav
Peak level 83.6 % Track quality 99.9 % Test CRC 2B8131AB Copy CRC 2B8131AB Copy OK
Track 3 Filename C:\Music\Command & Conquer - Tiberian Sun Soundtrack\03 - Frank Klepacki - Lone Trooper.wav
Peak level 100.0 % Track quality 100.0 % Test CRC 3DF6C297 Copy CRC 3DF6C297 Copy OK
Track 4 Filename C:\Music\Command & Conquer - Tiberian Sun Soundtrack\04 - Frank Klepacki - Scouting.wav
Peak level 100.0 % Track quality 100.0 % Test CRC 0B70291B Copy CRC 0B70291B Copy OK
Track 5 Filename C:\Music\Command & Conquer - Tiberian Sun Soundtrack\05 - Frank Klepacki - Infrared.wav
Peak level 93.4 % Track quality 100.0 % Test CRC F8495308 Copy CRC F8495308 Copy OK
Track 6 Filename C:\Music\Command & Conquer - Tiberian Sun Soundtrack\06 - Frank Klepacki - Flurry.wav
Peak level 91.2 % Track quality 100.0 % Test CRC D13E0234 Copy CRC D13E0234 Copy OK
Track 7 Filename C:\Music\Command & Conquer - Tiberian Sun Soundtrack\07 - Frank Klepacki - Mutants.wav
Peak level 100.0 % Track quality 100.0 % Test CRC E3EA0119 Copy CRC E3EA0119 Copy OK
Track 8 Filename C:\Music\Command & Conquer - Tiberian Sun Soundtrack\08 - Frank Klepacki - Gloom.wav
Peak level 91.4 % Track quality 100.0 % Test CRC E1E6763D Copy CRC E1E6763D Copy OK
Track 9 Filename C:\Music\Command & Conquer - Tiberian Sun Soundtrack\09 - Frank Klepacki - Heroism.wav
Peak level 100.0 % Track quality 100.0 % Test CRC 6D1E43A4 Copy CRC 6D1E43A4 Copy OK
Track 10 Filename C:\Music\Command & Conquer - Tiberian Sun Soundtrack\10 - Frank Klepacki - Approach.wav
Peak level 94.9 % Track quality 100.0 % Test CRC 4955723C Copy CRC 4955723C Copy OK
Track 11 Filename C:\Music\Command & Conquer - Tiberian Sun Soundtrack\11 - Frank Klepacki - Dusk Hour.wav
Peak level 93.8 % Track quality 100.0 % Test CRC 6759B98E Copy CRC 6759B98E Copy OK
Track 12 Filename C:\Music\Command & Conquer - Tiberian Sun Soundtrack\12 - Frank Klepacki - The Defense.wav
Peak level 100.0 % Track quality 99.9 % Test CRC F79B41B1 Copy CRC F79B41B1 Copy OK
Track 13 Filename C:\Music\Command & Conquer - Tiberian Sun Soundtrack\13 - Frank Klepacki - Mad Rap.wav
Peak level 100.0 % Track quality 100.0 % Test CRC 3DA3482C Copy CRC 3DA3482C Copy OK
Track 14 Filename C:\Music\Command & Conquer - Tiberian Sun Soundtrack\14 - Frank Klepacki - Valves.wav
Peak level 100.0 % Track quality 100.0 % Test CRC 90EB3C73 Copy CRC 90EB3C73 Copy OK
Track 15 Filename C:\Music\Command & Conquer - Tiberian Sun Soundtrack\15 - Frank Klepacki - What Lurks.wav
Peak level 76.2 % Track quality 99.9 % Test CRC 5D173820 Copy CRC 5D173820 Copy OK
Track 16 Filename C:\Music\Command & Conquer - Tiberian Sun Soundtrack\16 - Frank Klepacki - Score.wav
Peak level 95.0 % Track quality 100.0 % Test CRC B2B7BF22 Copy CRC B2B7BF22 Copy OK
No errors occured
End of status report

.cue

REM GENRE SoundtrackREM DATE 2000REM DISCID DE0F7E10REM COMMENT "ExactAudioCopy v0.95b3"PERFORMER "Frank Klepacki"TITLE "Command & Conquer Soundtrack Collection Disc 3 - Tiberian Sun"FILE "01. Timebomb.wav" WAVE TRACK 01 AUDIO TITLE "Timebomb" PERFORMER "Frank Klepacki" INDEX 01 00:00:00FILE "02. Pharotek.wav" WAVE TRACK 02 AUDIO TITLE "Pharotek" PERFORMER "Jarrid Mendelson" INDEX 01 00:00:00FILE "03. Lone Trooper.wav" WAVE TRACK 03 AUDIO TITLE "Lone Trooper" PERFORMER "Jarrid Mendelson" INDEX 01 00:00:00FILE "04. Scouting.wav" WAVE TRACK 04 AUDIO TITLE "Scouting" PERFORMER "Jarrid Mendelson" INDEX 01 00:00:00FILE "05. Infrared.wav" WAVE TRACK 05 AUDIO TITLE "Infrared" PERFORMER "Frank Klepacki" INDEX 01 00:00:00FILE "06. Flurry.wav" WAVE TRACK 06 AUDIO TITLE "Flurry" PERFORMER "Frank Klepacki & Jarrid Mendelson" INDEX 01 00:00:00FILE "07. Mutants.wav" WAVE TRACK 07 AUDIO TITLE "Mutants" PERFORMER "Frank Klepacki & Jarrid Mendelson" INDEX 01 00:00:00FILE "08. Gloom.wav" WAVE TRACK 08 AUDIO TITLE "Gloom" PERFORMER "Jarrid Mendelson" INDEX 01 00:00:00FILE "09. Heroism.wav" WAVE TRACK 09 AUDIO TITLE "Heroism" PERFORMER "Jarrid Mendelson" INDEX 01 00:00:00FILE "10. Approach.wav" WAVE TRACK 10 AUDIO TITLE "Approach" PERFORMER "Frank Klepacki" INDEX 01 00:00:00FILE "11. Dusk Hour.wav" WAVE TRACK 11 AUDIO TITLE "Dusk Hour" PERFORMER "Frank Klepacki & Jarrid Mendelson" INDEX 01 00:00:00FILE "12. The Defense.wav" WAVE TRACK 12 AUDIO TITLE "The Defense" PERFORMER "Jarrid Mendelson" INDEX 01 00:00:00FILE "13. Mad Rap.wav" WAVE TRACK 13 AUDIO TITLE "Mad Rap" PERFORMER "Frank Klepacki" INDEX 01 00:00:00FILE "14. Valves.wav" WAVE TRACK 14 AUDIO TITLE "Valves" PERFORMER "Frank Klepacki" INDEX 01 00:00:00FILE "15. What Lurks.wav" WAVE TRACK 15 AUDIO TITLE "What Lurks" PERFORMER "Frank Klepacki" INDEX 01 00:00:00FILE "16. Score.wav" WAVE TRACK 16 AUDIO TITLE "Score" PERFORMER "Frank Klepacki" INDEX 01 00:00:00

.accurip

[CUETools log; Date: 10.09.2012 0:13:54; Version: 2.1.4][CTDB TOCID: Bxn2COsYSB2p8BVsxB1tqjOnaDI-] found.Track | CTDB Status 1 | (10/10) Accurately ripped 2 | (10/10) Accurately ripped 3 | (10/10) Accurately ripped 4 | (10/10) Accurately ripped 5 | (10/10) Accurately ripped 6 | (10/10) Accurately ripped 7 | (10/10) Accurately ripped 8 | (10/10) Accurately ripped 9 | (10/10) Accurately ripped 10 | ( 9/10) Accurately ripped 11 | ( 8/10) Accurately ripped 12 | (10/10) Accurately ripped 13 | ( 8/10) Accurately ripped 14 | ( 9/10) Accurately ripped 15 | (10/10) Accurately ripped 16 | (10/10) Accurately ripped[AccurateRip ID: 00268e94-01d31025-de0f7e10] found.Track [ CRC | V2 ] Status 01 [604ee175|cd3eb1cb] (27+03/35) Accurately ripped 02 [622eecfc|edf74ebd] (28+03/36) Accurately ripped 03 [89d00348|4eb81829] (28+03/36) Accurately ripped 04 [58170243|435c6243] (28+03/36) Accurately ripped 05 [e592e5ca|35579bce] (28+03/36) Accurately ripped 06 [0c6fb21e|96debb2c] (28+03/36) Accurately ripped 07 [8b1432aa|d18895ff] (28+03/36) Accurately ripped 08 [6ce08d27|bc6be85e] (28+03/36) Accurately ripped 09 [1816aab8|aa09ec8b] (28+03/36) Accurately ripped 10 [0bbe94b2|da69127f] (28+03/36) Accurately ripped 11 [e7367bf4|73caa7bb] (28+03/36) Accurately ripped 12 [f3259b8b|32bffb12] (28+03/36) Accurately ripped 13 [5853633e|27e41b12] (28+03/36) Accurately ripped 14 [4deca82e|796a19a6] (28+03/35) Accurately ripped 15 [e6fbac00|d44ec417] (28+03/36) Accurately ripped 16 [5724d062|d9c87161] (27+03/35) Accurately rippedOffsetted by 667: 01 [c75f590e] (05/35) Accurately ripped 02 [5bdfa42a] (05/36) Accurately ripped 03 [2272b5e1] (05/36) Accurately ripped 04 [7e67e11e] (05/36) Accurately ripped 05 [845e3a12] (05/36) Accurately ripped 06 [3319cdf1] (05/36) Accurately ripped 07 [05a22077] (05/36) Accurately ripped 08 [adcf52e3] (05/36) Accurately ripped 09 [86ae3bc9] (05/36) Accurately ripped 10 [b53ca7d0] (05/36) Accurately ripped 11 [44035ad8] (05/36) Accurately ripped 12 [92d13a67] (05/36) Accurately ripped 13 [6ccad324] (05/36) Accurately ripped 14 [dabe3fd5] (04/35) Accurately ripped 15 [1b16dc57] (05/36) Accurately ripped 16 [62650bfe] (05/35) Accurately ripped
Track Peak [ CRC32 ] [W/O NULL] [ LOG ] -- 100,0 [97D1A299] [89265074] 01 75,3 [7C1B82F1] [8B5BECCC] CRC32 02 83,6 [2B8131AB] [A5A313C2] CRC32 03 100,0 [3DF6C297] [7929F78A] CRC32 04 100,0 [0B70291B] [E831199E] CRC32 05 93,4 [F8495308] [ACE116D2] CRC32 06 91,2 [D13E0234] [FCEF72B1] CRC32 07 100,0 [E3EA0119] [DC772072] CRC32 08 91,4 [E1E6763D] [00A9007A] CRC32 09 100,0 [6D1E43A4] [0F60498B] CRC32 10 94,9 [4955723C] [A9FD2256] CRC32 11 93,8 [6759B98E] [1F831223] CRC32 12 100,0 [F79B41B1] [0B91674E] CRC32 13 100,0 [3DA3482C] [C5771EDB] CRC32 14 100,0 [90EB3C73] [247B6D00] CRC32 15 76,2 [5D173820] [8D24AED1] CRC32 16 95,0 [B2B7BF22] [29FFA681] CRC32

.auCDtect

-----------------------
DON'T MODIFY THIS FILE
-----------------------
PERFORMER: auCDtect Task Manager, ver. 1.5.1RC6 build 1.5.1.7Copyright (c) 2008-2010 y-soft. All rights reservedhttp://y-soft.org
ANALYZER: auCDtect: CD records authenticity detector, version 0.8.2Copyright (c) 2004 Oleg Berngardt. All rights reserved.Copyright (c) 2004 Alexander Djourik. All rights reserved.
FILE: 01. Timebomb.flac Size: 10680493 Hash: 6EC32C4754B8A8FC886B786BE8EC01AB Accuracy: -m0 Conclusion: CDDA 100% Signature: 18F95A50C6015F09C54765D359E20E5AA166CD64FILE: 02. Pharotek.flac Size: 31049953 Hash: D349EB7F9DA52EB848F3135E8C16CB85 Accuracy: -m0 Conclusion: CDDA 100% Signature: 279BA905E97D5A2F9245A7E742DA8DD479EF7415FILE: 03. Lone Trooper.flac Size: 26912522 Hash: 8AC4A35F22EB286E8F065497BD90B7A4 Accuracy: -m0 Conclusion: CDDA 100% Signature: BECEFC4770C384A3B55A176737B3CF2227729D07FILE: 04. Scouting.flac Size: 28068493 Hash: B3B301A15E0484AB4862E732DD930F01 Accuracy: -m0 Conclusion: CDDA 100% Signature: EB3E3C856A607E1D47137393D0AE490B27D3F6B1FILE: 05. Infrared.flac Size: 25972000 Hash: 1CDC4D285B3C82C3337F4CB339C82DB3 Accuracy: -m0 Conclusion: CDDA 99% Signature: DCC1B6ECBE1641735F6ABE4CFE3C4DED03BF9581FILE: 06. Flurry.flac Size: 21768658 Hash: 59008A5E9408294F28F701C501D700C8 Accuracy: -m0 Conclusion: CDDA 100% Signature: 88F58CD1C81DAE6511BC9E6D0EE3C7BFE0DF4F34FILE: 07. Mutants.flac Size: 24118155 Hash: 2F087D628B46ABF43DB5E81641E851FE Accuracy: -m0 Conclusion: CDDA 100% Signature: EFA65B7B0065C6F3F820419E08A7CB0D5338088EFILE: 08. Gloom.flac Size: 22741679 Hash: 1D0F8A34892F33CB3D95B52A1143FE39 Accuracy: -m0 Conclusion: CDDA 86% Signature: 39BF10A331F562EE0BF8D0B17FDBC7E8B9819CCEFILE: 09. Heroism.flac Size: 27570004 Hash: 84972194D2A5F48C2A15554E5ACC3903 Accuracy: -m0 Conclusion: CDDA 100% Signature: 66FA9D612DE472FD7B4B1FDA8CB0E5C1E32D9E5FFILE: 10. Approach.flac Size: 22732239 Hash: 2B2EBBA3D3972FFC58A5E1FCA92CF223 Accuracy: -m0 Conclusion: CDDA 100% Signature: 8DB9FF6F6E65B774372D5F8FF0CA18BA2E335E7DFILE: 11. Dusk Hour.flac Size: 19285290 Hash: 59D6F6E2B37E06A7DE9DB521DAD11488 Accuracy: -m0 Conclusion: CDDA 100% Signature: F84DDA713B92B24E6A289E762364CD9E720B102CFILE: 12. The Defense.flac Size: 23789132 Hash: D719DB91EBC654F9093492BD2E9D5BB5 Accuracy: -m0 Conclusion: CDDA 100% Signature: 2F0C3EA5F2F5964D0186280DD39E0536C8229A7BFILE: 13. Mad Rap.flac Size: 27250200 Hash: C69E8A29A3E6E8AE88D1705A32B354E4 Accuracy: -m0 Conclusion: CDDA 99% Signature: C7024B2B6A8365A3922B1B57B315F411DF68CCECFILE: 14. Valves.flac Size: 25682394 Hash: 984E736B4B6E48DD8A26C058F8841768 Accuracy: -m0 Conclusion: CDDA 100% Signature: B11F203371B443E14D735611A788D86253AC50EDFILE: 15. What Lurks.flac Size: 29540887 Hash: 90EF0C4B2C04EE78FAEB9717F9A784C3 Accuracy: -m0 Conclusion: CDDA 100% Signature: 8D34F87EE2AE3BDC026F9B002635F219B9A3414DFILE: 16. Score.flac Size: 12932918 Hash: 0CDBF194506CC9FE730A02DF0F9C7E67 Accuracy: -m0 Conclusion: CDDA 100% Signature: 1CBFCB37C8A4039748907C321593C50A9A48FCA6

Disc 4 - Red Alert 2

01. Frank Klepacki - Hell March 2 (3:45) 958 kBit/s
02. Frank Klepacki - Industrofunk (3:13) 945 kBit/s
03. Frank Klepacki - Ready the Army (4:58) 862 kBit/s
04. Frank Klepacki - Grinder (2:27) 994 kBit/s
05. Frank Klepacki - In Deep (3:24) 795 kBit/s
06. Frank Klepacki - Motorized (4:02) 935 kBit/s
07. Frank Klepacki - Power (3:57) 936 kBit/s
08. Frank Klepacki - 200 Meters (4:13) 847 kBit/s
09. Frank Klepacki - Destroy (4:38) 1012 kBit/s
10. Frank Klepacki - Burn (4:37) 874 kBit/s
11. Frank Klepacki - Probing (4:19) 895 kBit/s
12. Frank Klepacki - Blow it Up (3:11) 972 kBit/s
13. Frank Klepacki - Eagle Hunter (4:16) 816 kBit/s
14. Frank Klepacki - Fortification (4:03) 873 kBit/s
15. Frank Klepacki - Jank (3:46) 892 kBit/s
16. Frank Klepacki - C&C in the House (4:06) 957 kBit/s-

.log

EAC extraction logfile from 15. December 2006, 22:29 for CDFrank Klepacki / Command & Conquer Red Alert 2
Used drive : HL-DT-STDVD-ROM GDR8164B Adapter: 1 ID: 0Read mode : Secure with NO C2, accurate stream, disable cacheRead offset correction : 102Overread into Lead-In and Lead-Out : No
Used output format : Internal WAV Routines 44.100 Hz; 16 Bit; Stereo
Other options : Fill up missing offset samples with silence : Yes Delete leading and trailing silent blocks : No Installed external ASPI interface
Track 1 Filename C:\My Music Files\New Rips\12-15-2006\Command & Conquer Soundtrack Collection\Disc 4 ~ C&C - Red Alert 2\01 - Hell March 2.wav
Pre-gap length 0:00:02.00
Peak level 100.0 % Track quality 100.0 % Test CRC 1D4B0C90 Copy CRC 1D4B0C90 Copy OK
Track 2 Filename C:\My Music Files\New Rips\12-15-2006\Command & Conquer Soundtrack Collection\Disc 4 ~ C&C - Red Alert 2\02 - Industrofunk.wav
Peak level 100.0 % Track quality 100.0 % Test CRC 5A8511D4 Copy CRC 5A8511D4 Copy OK
Track 3 Filename C:\My Music Files\New Rips\12-15-2006\Command & Conquer Soundtrack Collection\Disc 4 ~ C&C - Red Alert 2\03 - Ready The Army.wav
Peak level 100.0 % Track quality 99.9 % Test CRC 7B92269F Copy CRC 7B92269F Copy OK
Track 4 Filename C:\My Music Files\New Rips\12-15-2006\Command & Conquer Soundtrack Collection\Disc 4 ~ C&C - Red Alert 2\04 - Grinder.wav
Peak level 100.0 % Track quality 100.0 % Test CRC 9A97FD59 Copy CRC 9A97FD59 Copy OK
Track 5 Filename C:\My Music Files\New Rips\12-15-2006\Command & Conquer Soundtrack Collection\Disc 4 ~ C&C - Red Alert 2\05 - In Deep.wav
Peak level 100.0 % Track quality 99.9 % Test CRC C4931D80 Copy CRC C4931D80 Copy OK
Track 6 Filename C:\My Music Files\New Rips\12-15-2006\Command & Conquer Soundtrack Collection\Disc 4 ~ C&C - Red Alert 2\06 - Motorized.wav
Peak level 100.0 % Track quality 100.0 % Test CRC FD6297DD Copy CRC FD6297DD Copy OK
Track 7 Filename C:\My Music Files\New Rips\12-15-2006\Command & Conquer Soundtrack Collection\Disc 4 ~ C&C - Red Alert 2\07 - Power.wav
Peak level 99.7 % Track quality 100.0 % Test CRC 3ED83D5D Copy CRC 3ED83D5D Copy OK
Track 8 Filename C:\My Music Files\New Rips\12-15-2006\Command & Conquer Soundtrack Collection\Disc 4 ~ C&C - Red Alert 2\08 - 200 Meters.wav
Peak level 89.4 % Track quality 100.0 % Test CRC 12AC25F8 Copy CRC 12AC25F8 Copy OK
Track 9 Filename C:\My Music Files\New Rips\12-15-2006\Command & Conquer Soundtrack Collection\Disc 4 ~ C&C - Red Alert 2\09 - Destroy.wav
Peak level 100.0 % Track quality 100.0 % Test CRC E5299E8E Copy CRC E5299E8E Copy OK
Track 10 Filename C:\My Music Files\New Rips\12-15-2006\Command & Conquer Soundtrack Collection\Disc 4 ~ C&C - Red Alert 2\10 - Burn.wav
Peak level 100.0 % Track quality 100.0 % Test CRC 75499503 Copy CRC 75499503 Copy OK
Track 11 Filename C:\My Music Files\New Rips\12-15-2006\Command & Conquer Soundtrack Collection\Disc 4 ~ C&C - Red Alert 2\11 - Probing.wav
Peak level 100.0 % Track quality 100.0 % Test CRC 3002D93D Copy CRC 3002D93D Copy OK
Track 12 Filename C:\My Music Files\New Rips\12-15-2006\Command & Conquer Soundtrack Collection\Disc 4 ~ C&C - Red Alert 2\12 - Blow It Up.wav
Peak level 100.0 % Track quality 100.0 % Test CRC C75A914F Copy CRC C75A914F Copy OK
Track 13 Filename C:\My Music Files\New Rips\12-15-2006\Command & Conquer Soundtrack Collection\Disc 4 ~ C&C - Red Alert 2\13 - Eagle Hunter.wav
Peak level 100.0 % Track quality 100.0 % Test CRC 290E64C3 Copy CRC 290E64C3 Copy OK
Track 14 Filename C:\My Music Files\New Rips\12-15-2006\Command & Conquer Soundtrack Collection\Disc 4 ~ C&C - Red Alert 2\14 - Fortification.wav
Peak level 100.0 % Track quality 100.0 % Test CRC D550DCDD Copy CRC D550DCDD Copy OK
Track 15 Filename C:\My Music Files\New Rips\12-15-2006\Command & Conquer Soundtrack Collection\Disc 4 ~ C&C - Red Alert 2\15 - Jank.wav
Peak level 100.0 % Track quality 100.0 % Test CRC D5A4B61C Copy CRC D5A4B61C Copy OK
Track 16 Filename C:\My Music Files\New Rips\12-15-2006\Command & Conquer Soundtrack Collection\Disc 4 ~ C&C - Red Alert 2\16 - C&C In The House.wav
Peak level 100.0 % Track quality 99.9 % Test CRC 0AB79188 Copy CRC 0AB79188 Copy OK
No errors occured
End of status report

.cue

REM GENRE GameREM DATE 2000REM DISCID D10EBE10REM COMMENT "ExactAudioCopy v0.95b4"PERFORMER "Frank Klepacki"TITLE "Command & Conquer Soundtrack Collection Disc 4 - Red Alert 2"FILE "01. Hell March 2.wav" WAVE TRACK 01 AUDIO TITLE "Hell March 2" PERFORMER "Frank Klepacki" FLAGS DCP INDEX 01 00:00:00FILE "02. Industrofunk.wav" WAVE TRACK 02 AUDIO TITLE "Industrofunk" PERFORMER "Frank Klepacki" FLAGS DCP INDEX 01 00:00:00FILE "03. Ready The Army.wav" WAVE TRACK 03 AUDIO TITLE "Ready The Army" PERFORMER "Frank Klepacki" FLAGS DCP INDEX 01 00:00:00FILE "04. Grinder.wav" WAVE TRACK 04 AUDIO TITLE "Grinder" PERFORMER "Frank Klepacki" FLAGS DCP INDEX 01 00:00:00FILE "05. In Deep.wav" WAVE TRACK 05 AUDIO TITLE "In Deep" PERFORMER "Frank Klepacki" FLAGS DCP INDEX 01 00:00:00FILE "06. Motorized.wav" WAVE TRACK 06 AUDIO TITLE "Motorized" PERFORMER "Frank Klepacki" FLAGS DCP INDEX 01 00:00:00FILE "07. Power.wav" WAVE TRACK 07 AUDIO TITLE "Power" PERFORMER "Frank Klepacki" FLAGS DCP INDEX 01 00:00:00FILE "08. 200 Meters.wav" WAVE TRACK 08 AUDIO TITLE "200 Meters" PERFORMER "Frank Klepacki" FLAGS DCP INDEX 01 00:00:00FILE "09. Destroy.wav" WAVE TRACK 09 AUDIO TITLE "Destroy" PERFORMER "Frank Klepacki" FLAGS DCP INDEX 01 00:00:00FILE "10. Burn.wav" WAVE TRACK 10 AUDIO TITLE "Burn" PERFORMER "Frank Klepacki" FLAGS DCP INDEX 01 00:00:00FILE "11. Probing.wav" WAVE TRACK 11 AUDIO TITLE "Probing" PERFORMER "Frank Klepacki" FLAGS DCP INDEX 01 00:00:00FILE "12. Blow It Up.wav" WAVE TRACK 12 AUDIO TITLE "Blow It Up" PERFORMER "Frank Klepacki" FLAGS DCP INDEX 01 00:00:00FILE "13. Eagle Hunter.wav" WAVE TRACK 13 AUDIO TITLE "Eagle Hunter" PERFORMER "Frank Klepacki" FLAGS DCP INDEX 01 00:00:00FILE "14. Fortification.wav" WAVE TRACK 14 AUDIO TITLE "Fortification" PERFORMER "Frank Klepacki" FLAGS DCP INDEX 01 00:00:00FILE "15. Jank.wav" WAVE TRACK 15 AUDIO TITLE "Jank" PERFORMER "Frank Klepacki" FLAGS DCP INDEX 01 00:00:00FILE "16. C&C In The House.wav" WAVE TRACK 16 AUDIO TITLE "C&C In The House" PERFORMER "Frank Klepacki" FLAGS DCP INDEX 01 00:00:00

.accurip

[CUETools log; Date: 09.09.2012 23:12:10; Version: 2.1.4][CTDB TOCID: SoqUqnX6Yb_lGUCH6vdgidssYsg-] found.Track | CTDB Status 1 | (2/2) Accurately ripped 2 | (2/2) Accurately ripped 3 | (2/2) Accurately ripped 4 | (2/2) Accurately ripped 5 | (2/2) Accurately ripped 6 | (2/2) Accurately ripped 7 | (2/2) Accurately ripped 8 | (2/2) Accurately ripped 9 | (2/2) Accurately ripped 10 | (2/2) Accurately ripped 11 | (2/2) Accurately ripped 12 | (2/2) Accurately ripped 13 | (2/2) Accurately ripped 14 | (2/2) Accurately ripped 15 | (2/2) Accurately ripped 16 | (2/2) Accurately ripped[AccurateRip ID: 0023fc40-01b34fa4-d10ebe10] found.Track [ CRC | V2 ] Status 01 [9f097133|ffd6e404] (11+00/11) Accurately ripped 02 [ff5dbaa5|48dcf94a] (11+00/11) Accurately ripped 03 [e366de05|f6f7dc28] (11+00/11) Accurately ripped 04 [3c9f8243|2b931a83] (11+00/11) Accurately ripped 05 [012614c8|c96f5b10] (11+00/11) Accurately ripped 06 [330916f1|b315f455] (11+00/11) Accurately ripped 07 [4a16e8b3|e0abe518] (11+00/11) Accurately ripped 08 [926ec973|70aaeb6b] (11+00/11) Accurately ripped 09 [35474bbe|ceccbd4d] (11+00/11) Accurately ripped 10 [01f44754|89e2d68a] (11+00/11) Accurately ripped 11 [76fd4ea9|4cd59628] (10+00/10) Accurately ripped 12 [b7cd581c|5cc412f5] (10+00/10) Accurately ripped 13 [e7c53661|4541c521] (10+00/10) Accurately ripped 14 [09f22d6f|12f1d59d] (11+00/11) Accurately ripped 15 [1f35f092|517ac127] (11+00/11) Accurately ripped 16 [5913ae1b|16f77c05] (11+00/11) Accurately ripped
Track Peak [ CRC32 ] [W/O NULL] [ LOG ] -- 100,0 [F4713069] [1BDFCC15] 01 100,0 [1D4B0C90] [B54F0E0C] CRC32 02 100,0 [5A8511D4] [69A022D7] CRC32 03 100,0 [7B92269F] [1B2794EB] CRC32 04 100,0 [9A97FD59] [943CB515] CRC32 05 100,0 [C4931D80] [435CA648] CRC32 06 100,0 [FD6297DD] [AD689791] CRC32 07 99,7 [3ED83D5D] [799CFB21] CRC32 08 89,4 [12AC25F8] [1C6DE2E6] CRC32 09 100,0 [E5299E8E] [36DA31E7] CRC32 10 100,0 [75499503] [10A9A681] CRC32 11 100,0 [3002D93D] [2B780CF3] CRC32 12 100,0 [C75A914F] [A11436D7] CRC32 13 100,0 [290E64C3] [D788C184] CRC32 14 100,0 [D550DCDD] [C7F47F6C] CRC32 15 100,0 [D5A4B61C] [A8BEE275] CRC32 16 100,0 [0AB79188] [B24FF44E] CRC32

.auCDtect

-----------------------
DON'T MODIFY THIS FILE
-----------------------
PERFORMER: auCDtect Task Manager, ver. 1.5.1RC6 build 1.5.1.7Copyright (c) 2008-2010 y-soft. All rights reservedhttp://y-soft.org
ANALYZER: auCDtect: CD records authenticity detector, version 0.8.2Copyright (c) 2004 Oleg Berngardt. All rights reserved.Copyright (c) 2004 Alexander Djourik. All rights reserved.
FILE: 01. Hell March 2.flac Size: 27042640 Hash: 54698C429BE7295F69EA62D3DB115B8A Accuracy: -m0 Conclusion: CDDA 100% Signature: C036BE203411378039479ED5FBB03A37EC60F06AFILE: 02. Industrofunk.flac Size: 22895458 Hash: DF25C97299E784521C75947EC0027B33 Accuracy: -m0 Conclusion: CDDA 100% Signature: 4047E9543E9F41A474EF21BF431C0468F61D6BCAFILE: 03. Ready the Army.flac Size: 32201754 Hash: B6D7F7290567F5D26D1D075FE7E4FA11 Accuracy: -m0 Conclusion: CDDA 99% Signature: 94A0FC621B42ECCA5134542439C68D87D98AE649FILE: 04. Grinder.flac Size: 18402061 Hash: C5340B2FF7454AFE25B77B6D2C542C9B Accuracy: -m0 Conclusion: CDDA 100% Signature: 0E124B4CDF069E2F7514E4B34F81EEFC49B91A8AFILE: 05. In Deep.flac Size: 20440155 Hash: DBAE3F45933E32673D2F6992CDBE5C67 Accuracy: -m0 Conclusion: CDDA 99% Signature: E6A164AAAB3C98A127F48134423CD1026B170C4CFILE: 06. Motorized.flac Size: 28445781 Hash: 788B9DDBCC7FB505443570B264173344 Accuracy: -m0 Conclusion: CDDA 100% Signature: 9EF159DFA6A757400F27E3A58192530CCDBA9536FILE: 07. Power.flac Size: 27841020 Hash: ADF64874A08D302F688F4BB46CF1D328 Accuracy: -m0 Conclusion: CDDA 100% Signature: E795BBA9FA7A5EDDA344BA8D1C191BDEB343225BFILE: 08. 200 Meters.flac Size: 26895646 Hash: DBF9D095237253BF2A34AE512738A4A1 Accuracy: -m0 Conclusion: CDDA 100% Signature: 87AE981BFE73789E33A17D535FA45A0DD0D5B9B0FILE: 09. Destroy.flac Size: 35351431 Hash: F5A34CEED65337BBD3279B34FE64D2D3 Accuracy: -m0 Conclusion: CDDA 100% Signature: 462B99F31E86B88B2A9C859E1AA8F38300240030FILE: 10. Burn.flac Size: 30404929 Hash: 933E2684769C36E5C547C0DA66D3BB62 Accuracy: -m0 Conclusion: CDDA 100% Signature: EA578B00C50F7F28DA59A77C5BCA4EEED674BF35FILE: 11. Probing.flac Size: 29136887 Hash: 6B74BA0D8D2C906B609D7A40920301D5 Accuracy: -m0 Conclusion: CDDA 100% Signature: 390701DE1B952B78E183040665C565911ECCE43CFILE: 12. Blow it Up.flac Size: 23367823 Hash: 85A3387FC99ADA0382ECCEE2EB98A16E Accuracy: -m0 Conclusion: CDDA 100% Signature: 95042B25B6FC3FE534C684D0DB67EB35E0D1AD7EFILE: 13. Eagle Hunter.flac Size: 26290992 Hash: 7CB4B509460105318DD7A3340B6FAACA Accuracy: -m0 Conclusion: CDDA 100% Signature: 395255DF800CBF2BB99BF5FF8756B2D0332096EEFILE: 14. Fortification.flac Size: 26627767 Hash: 28A4071656CB50FB15976B748366E777 Accuracy: -m0 Conclusion: CDDA 100% Signature: 25B0823346C5BD88697DFD53582FB4036DCFF419FILE: 15. Jank.flac Size: 25344601 Hash: A324F0BAF553E9040083742905C42097 Accuracy: -m0 Conclusion: CDDA 100% Signature: C45DF2735C4BDCBE2404C670F5162BACAA0BCDA7FILE: 16. C&C in the House.flac Size: 29645244 Hash: 200D2BA0441FAFAE5FA689E4A8EAFDE5 Accuracy: -m0 Conclusion: CDDA 100% Signature: 8B843D09220D8B7209326B1B0045C2F879053A15

Создавать темы 01-Дек-2013 16:16

[Профиль]  [ЛС] 

Boris_T ®

Стаж: 6 лет 4 месяца

Сообщений: 127

Симпатии: 2

Кому надо, есть 5 сольных альбомов Фрэнка Клепаки, ежели что. Могу выложить.

Создавать темы 11-Дек-2013 20:12

[Профиль]  [ЛС] 

ForJ

Стаж: 4 года 2 месяца

Сообщений: 56

Boris_T, выкладывай)))) с удовольствием скачаю

Создавать темы 11-Фев-2014 22:58

[Профиль]  [ЛС] 

Boris_T ®

Стаж: 6 лет 4 месяца

Сообщений: 127

Симпатии: 2

Boris_T, выкладывай)))) с удовольствием скачаю
На днях будет релиз тогда.

Создавать темы 12-Фев-2014 18:03

[Профиль]  [ЛС] 
Показать сообщения:    
Ответить на тему

Текущее время: 17-Авг 04:53

Часовой пояс: UTC + 5



Вы не можете начинать темы
Вы не можете отвечать на сообщения
Вы не можете редактировать свои сообщения
Вы не можете удалять свои сообщения
Вы не можете голосовать в опросах
Вы не можете прикреплять файлы к сообщениям
Вы не можете скачивать файлы