Сталинград (Фёдор Бондарчук)(2013, военный, драма, боевик, BDRip) | Лицензия |

Ответить на тему
 

Suxrob89 ®

Стаж: 7 лет 1 месяц

Сообщений: 933

Симпатии: 564

- - - Год выпуска: 2013
Страна: Россия / Арт Пикчерс Студия, Нон-стоп Продакшн
Жанр: военный, драма, боевик
Продолжительность: 02:05:29
Перевод: Оригинальное (русский) | Лицензия |-Режиссер: Фёдор Бондарчук-В ролях: Пётр Фёдоров, Томас Кречман, Мария Смольникова, Яна Студилина, Дмитрий Лысенков, Алексей Барабаш, Андрей Смоляков, Сергей Бондарчук, Хайнер Лаутербах, Олег Тилькин-Описание: Сталинград. Советские войска планируют контрнаступление на немецкие части, занявшие правый берег Волги. Наступление сорвано. Лишь разведчикам под командованием капитана Громова удается перебраться на другой берег и закрепиться в одном из домов. Им дан приказ удержать его любой ценой. Кроме нескольких чудом уцелевших советских солдат они находят в доме его последнюю жительницу — 19-летнюю Катю. Приказ отбить дом, захваченный противником, получает немецкий офицер Кан. На фоне одного из самых кровопролитных сражений в истории человечества разворачиваются истории любви и драматического противостояния характеров.- -Качество: BDRip| исх. Сталинград (2013) Blu-ray Disc [3D/2D] 1080p AVC 5.1-BLUEBIRD
Формат: AVI
Видео кодек: XviD
Аудио кодек: AC3
Видео: 720x304, 1137 kb/s, 23.976 fps
Аудио: AC3, 6 ch, 448 kb/s, 48.0 KHz

Media info

D:\Stalingrad.2013.BDRip.avi
   General
      Complete name : D:\Stalingrad.2013.BDRip.avi
      Format : AVI
      Format/Info : Audio Video Interleave
      File size : 1.46 GiB
      Duration : 2h 10mn
      Overall bit rate : 1 594 Kbps
      Writing application : VirtualDubMod 1.5.10.2 (build 2540/release)
      Writing library : VirtualDubMod build 2540/release
   Video #0
      ID : 0
      Format : MPEG-4 Visual
      Format profile : Advanced [email protected]
      Format settings, BVOP : 2
      Format settings, QPel : No
      Format settings, GMC : No warppoints
      Format settings, Matrix : Custom
      Codec ID : XVID
      Codec ID/Hint : XviD
      Duration : 2h 10mn
      Bit rate : 1 137 Kbps
      Width : 720 pixels
      Height : 304 pixels
      Display aspect ratio : 2.35:1
      Frame rate : 23.976 fps
      Color space : YUV
      Chroma subsampling : 4:2:0
      Bit depth : 8 bits
      Scan type : Progressive
      Compression mode : Lossy
      Bits/(Pixel*Frame) : 0.217
      Stream size : 1.04 GiB (71%)
      Writing library : XviD 1.2.1 (UTC 2008-12-04)
   Audio #1
      ID : 1
      Format : AC-3
      Format/Info : Audio Coding 3
      Mode extension : CM (complete main)
      Format settings, Endianness : Big
      Codec ID : 2000
      Duration : 2h 10mn
      Bit rate mode : Constant
      Bit rate : 448 Kbps
      Channel(s) : 6 channels
      Channel positions : Front: L C R, Side: L R, LFE
      Sampling rate : 48.0 KHz
      Bit depth : 16 bits
      Compression mode : Lossy
      Stream size : 419 MiB (28%)
      Alignment : Split accross interleaves
      Interleave, duration : 42 ms (1.00 video frame)
      Interleave, preload duration : 500 ms

Скриншоты

Создавать темы 02-Дек-2013 07:30

[Профиль]  [ЛС] 

Farnerud

Стаж: 6 лет 9 месяцев

Сообщений: 13

...а первый кадр точно из фильма, чёт не вписывается в реали фильма??))

Создавать темы 02-Дек-2013 09:55

[Профиль]  [ЛС] 

LeftHand

Стаж: 3 года 10 месяцев

Сообщений: 19

Симпатии: 5

эх в 3Д его бы залил кто)))

Создавать темы 02-Дек-2013 11:50

[Профиль]  [ЛС] 

Astrolog

Стаж: 5 лет 3 месяца

Сообщений: 213

Симпатии: 27

...а первый кадр точно из фильма, чёт не вписывается в реали фильма??))
Это история об истории.))

Создавать темы 02-Дек-2013 12:38

[Профиль]  [ЛС] 

Roy

Стаж: 7 лет 6 месяцев

Сообщений: 13

Фильм туфта
а режиссер Фёдор Бондарчук не имеет снимать фильмы вообще
и точно оценили фильма по IMDb 4.9
по оценки IMDb с балла 7 и более это - значит это хорошие оценки
IMDb с балла 7 - 3 оценка
IMDb с балла 8 - 4 оценка
IMDb с балла 9 - 5 оценка

Создавать темы 02-Дек-2013 14:14

[Профиль]  [ЛС] 

alisherka

Стаж: 5 лет 4 месяца

Сообщений: 10

Симпатии: 1

Фильм туфта
а режиссер Фёдор Бондарчук не имеет снимать фильмы вообще
и точно оценили фильма по IMDb 4.9
согласен. но он ведь сын своего отца, потому и деньги дают на киношку.

Создавать темы 02-Дек-2013 21:28

[Профиль]  [ЛС] 

Ancient

Стаж: 5 лет 3 месяца

Сообщений: 12

Симпатии: 1

Меня всегда улыбает высокий рейтинг в Кинопоиске, при никакущем рейтинге IMdb =))

Создавать темы 03-Дек-2013 10:25

[Профиль]  [ЛС] 

root

Стаж: 5 лет 3 месяца

Сообщений: 592

Симпатии: 172

Меня всегда улыбает высокий рейтинг в Кинопоиске, при никакущем рейтинге IMdb =))
Иностранцы же , а фильм так то неплох

Создавать темы 10-Дек-2013 13:33

[Профиль]  [ЛС] 

good_luck

Стаж: 4 года 11 месяцев

Сообщений: 39

Симпатии: 1

http://mover.uz/watch/YzmAwMM/

Создавать темы 10-Дек-2013 14:00

[Профиль]  [ЛС] 

Чингиз

Стаж: 5 лет 7 месяцев

Сообщений: 37

Симпатии: 20

Ну и фильм туфта, такое кино только бездарный режжисер может снимать, также отсутсвует смысл и последовательность фильма.

Создавать темы 12-Дек-2013 19:41

[Профиль]  [ЛС] 

taziev

Стаж: 4 года 11 месяцев

Сообщений: 41

Симпатии: 1

а разве в советские времена был МЧС?

Создавать темы 16-Дек-2013 12:19

[Профиль]  [ЛС] 

bezdelent

Стаж: 4 года 3 месяца

Сообщений: 20

а так на вид и не скажешь сразу, что деду 90 лет в обед.. лет 60, ну 70, но не 90, на мой взгляд.. может тот пацан про которого рассказывает это он сам?.. хз

Создавать темы 22-Дек-2013 01:35

[Профиль]  [ЛС] 
Показать сообщения:    
Ответить на тему

Текущее время: 20-Сен 08:53

Часовой пояс: UTC + 5



Вы не можете начинать темы
Вы не можете отвечать на сообщения
Вы не можете редактировать свои сообщения
Вы не можете удалять свои сообщения
Вы не можете голосовать в опросах
Вы не можете прикреплять файлы к сообщениям
Вы не можете скачивать файлы