Слепой детектив / Blind Detective / Man Tam (Джонни То / Johnnie To) [2013, Гонконг, триллер, детектив, комедия, драма, HDRip] DVO [GREEN TEA]

Ответить на тему
 

Suxrob89 ®

Стаж: 7 лет 1 месяц

Сообщений: 933

Симпатии: 564

-Слепой детектив / Blind Detective / Man Tam- Страна: Гонконг
Жанр: триллер, детектив, комедия, драма
Год выпуска: 2013
Продолжительность: 02:09:37-Перевод: Любительский (двухголосый закадровый) Ольга Гринтиева и Константин Романов
Cубтитры: нет
Оригинальная аудиодорожка: нет-Режиссер: Джонни То / Johnnie To-В ролях: Энди Лау / Сэмми Чэн / Гао Юаньюань / Тао Го / Филип Кеунг / Сует Лам и др.-Описание: Он — талантливый детектив, вынужденный уйти в отставку после того, как во время выполнения задания потерял зрение. С тех пор он зарабатывает на жизнь тем, что распутывает дела, с которыми не может справиться полиция. Она — многообещающий полицейский агент, терзаемая чувством вины из-за пропажи подруги детства. Потрясенная тем, с каким блеском он раскрывает дело, она просит его помочь разыскать ее подругу. Он соглашается… по только ему известным причинам.- -Качество видео: HDRip
Формат видео: AVI
Видео: 720x304, 1116 Kbps, 24 fps
Аудио: MP3, 192 кб/с, 2 канала, 48 Гц [Rus / Eng]

MediaInfo

D:\Slepoi.detektiv.2013.L2.HDRip.1400MB.avi
General
Complete name : D:\Slepoi.detektiv.2013.L2.HDRip.1400MB.avi
Format : AVI
Format/Info : Audio Video Interleave
File size : 1.37 GiB
Duration : 2h 9mn
Overall bit rate : 1 514 Kbps
Writing application : VirtualDubMod 1.5.10.2 (build 2540/release)
Writing library : VirtualDubMod build 2540/release
Video #0
ID : 0
Format : xvid
Codec ID : xvid
Duration : 2h 9mn
Bit rate : 1 116 Kbps
Width : 720 pixels
Height : 304 pixels
Display aspect ratio : 2.35:1
Frame rate : 24.000 fps
Bits/(Pixel*Frame) : 0.212
Stream size : 1.01 GiB (74%)
Audio #1
ID : 1
Format : MPEG Audio
Format version : Version 1
Format profile : Layer 3
Mode : Joint stereo
Codec ID : 55
Codec ID/Hint : MP3
Duration : 2h 9mn
Bit rate mode : Constant
Bit rate : 192 Kbps
Channel(s) : 2 channels
Sampling rate : 48.0 KHz
Compression mode : Lossy
Delay relative to video : 1ms
Stream size : 178 MiB (13%)
Alignment : Split accross interleaves
Interleave, duration : 42 ms (1.00 video frame)
Interleave, preload duration : 500 ms
Audio #2
ID : 2
Format : AC-3
Format/Info : Audio Coding 3
Mode extension : CM (complete main)
Format settings, Endianness : Big
Codec ID : 2000
Duration : 2h 9mn
Bit rate mode : Constant
Bit rate : 192 Kbps
Channel(s) : 2 channels
Channel positions : Front: L R
Sampling rate : 48.0 KHz
Bit depth : 16 bits
Compression mode : Lossy
Stream size : 178 MiB (13%)
Alignment : Split accross interleaves
Interleave, duration : 42 ms (1.00 video frame)
Interleave, preload duration : 500 ms

Скриншоты

Создавать темы 02-Дек-2013 07:47

[Профиль]  [ЛС] 
Показать сообщения:    
Ответить на тему

Текущее время: 22-Сен 23:46

Часовой пояс: UTC + 5



Вы не можете начинать темы
Вы не можете отвечать на сообщения
Вы не можете редактировать свои сообщения
Вы не можете удалять свои сообщения
Вы не можете голосовать в опросах
Вы не можете прикреплять файлы к сообщениям
Вы не можете скачивать файлы