Риддик / Riddick (Дэвид Туи) [2013 г., фантастика, боевик, триллер, DVDRip] [Лицензия / iTunes]

Страницы :  1, 2, 3  След.

Ответить на тему
 

mansurjon ®

Стаж: 7 лет 5 месяцев

Сообщений: 103

Симпатии: 3

Риддик / Riddick
«Лучший способ отомстить - остаться в живых»
- Год выпуска: 2013
Страна: США
Жанр: Фантастика, Боевик, Триллер
Продолжительность: 01:58:39
Перевод: Дублированный [Лицензия / iTunes]-Режиссер: Дэвид Туи-В ролях: Вин Дизель, Хорди Молья, Мэтт Нэйбл, Кэти Сакхофф, Дэйв Баутиста, Андреас Апергис, Нолан Джералд Фанк, Конрад Пла, Рауль Трухильо, Карл Урбан, Боким Вудбайн-Описание: Преданный своими и брошенный умирать на пустынной планете, Риддик сражается с хищниками за жизнь и становится сильнее и опаснее себя прежнего. Открывшие на него охоту галактические наемники оказываются пешками в грандиозном плане отмщения. С врагами, возникающими на его пути тогда, когда это нужно самому Риддику, он начинает поход во имя мести, чтобы в конечном счете вернуться на родную Фурию и спасти ее от уничтожения.-Доп.информация:
 -Качество: DVDRip
Формат: AVI
Видео кодек: XviD
Аудио кодек: AC3
Видео: 720x304, 1843Kbps
Аудио: Russian: Dolby AC3, 48 KHz, 6ch, 384kbps / Spain: AC-3, 384 Kbps, 2 channels, 44.1 KHz
-

МедиаИнфо

General
Complete name : E:\Downloads\Kino\Riddik.2013.D.DVDRip.avi
Format : AVI
Format/Info : Audio Video Interleave
Format profile : OpenDML
File size : 2.18 GiB
Duration : 1h 58mn
Overall bit rate : 2 633 Kbps
Writing application : VirtualDubModRus 1.5.10.2 (build 2542/release)
Writing library : VirtualDubMod build 2542/release
Video
ID : 0
Format : MPEG-4 Visual
Format profile : Advanced [email protected]
Format settings, BVOP : 2
Format settings, QPel : No
Format settings, GMC : No warppoints
Format settings, Matrix : Default (H.263)
Codec ID : XVID
Codec ID/Hint : XviD
Duration : 1h 58mn
Bit rate : 1 843 Kbps
Width : 720 pixels
Height : 304 pixels
Display aspect ratio : 2.35:1
Frame rate : 29.970 fps
Color space : YUV
Chroma subsampling : 4:2:0
Bit depth : 8 bits
Scan type : Progressive
Compression mode : Lossy
Bits/(Pixel*Frame) : 0.281
Stream size : 1.53 GiB (70%)
Writing library : XviD 1.2.1 (UTC 2008-12-04)
Audio #1
ID : 1
Format : AC-3
Format/Info : Audio Coding 3
Mode extension : CM (complete main)
Format settings, Endianness : Big
Codec ID : 2000
Duration : 1h 58mn
Bit rate mode : Constant
Bit rate : 384 Kbps
Channel(s) : 6 channels
Channel positions : Front: L C R, Side: L R, LFE
Sampling rate : 48.0 KHz
Bit depth : 16 bits
Compression mode : Lossy
Stream size : 326 MiB (15%)
Alignment : Split accross interleaves
Interleave, duration : 33 ms (1.00 video frame)
Interleave, preload duration : 500 ms
Audio #2
ID : 2
Format : AC-3
Format/Info : Audio Coding 3
Mode extension : CM (complete main)
Format settings, Endianness : Big
Codec ID : 2000
Duration : 1h 58mn
Bit rate mode : Constant
Bit rate : 384 Kbps
Channel(s) : 2 channels
Channel positions : Front: L R
Sampling rate : 44.1 KHz
Bit depth : 16 bits
Compression mode : Lossy
Stream size : 326 MiB (15%)
Alignment : Split accross interleaves
Interleave, duration : 33 ms (1.00 video frame)
Interleave, preload duration : 500 ms

Скриншоты








Последний раз редактировалось: mansurjon (2013-12-17 16:32), всего редактировалось 4 раз(а)

Создавать темы 03-Дек-2013 04:48

[Профиль]  [ЛС] 

devill

Стаж: 6 лет 4 месяца

Сообщений: 23

Классно!!! а лицуха когда будет ?

Создавать темы 03-Дек-2013 08:38

[Профиль]  [ЛС] 

Star Line

Стаж: 4 года

Сообщений: 136

Симпатии: 26

Стоит качать или нет. опешите пожалуйста звук. как с кинотеатра? есть ли места где без перевода?

Создавать темы 03-Дек-2013 11:47

[Профиль]  [ЛС] 

mansurjon ®

Стаж: 7 лет 5 месяцев

Сообщений: 103

Симпатии: 3

Стоит качать или нет. опешите пожалуйста звук. как с кинотеатра? есть ли места где без перевода?
не различишь с луцухой

Создавать темы 03-Дек-2013 12:03

[Профиль]  [ЛС] 

razor2011

Стаж: 5 лет 1 месяц

Сообщений: 227

Симпатии: 37

когда HD?

Создавать темы 03-Дек-2013 12:33

[Профиль]  [ЛС] 

Star Line

Стаж: 4 года

Сообщений: 136

Симпатии: 26

mansurjon, Тогда почему не лицензия?

Создавать темы 03-Дек-2013 12:44

[Профиль]  [ЛС] 

Emigrate

Стаж: 5 лет 9 месяцев

Сообщений: 110

Симпатии: 1

mansurjon, Тогда почему не лицензия?
Звук линейный очищенный так ясно?

Создавать темы 03-Дек-2013 16:53

[Профиль]  [ЛС] 

Timmkinn

Стаж: 4 года 7 месяцев

Сообщений: 13

Звук очищенный , но все таки звук не совсем четко идет на обычных простых колонках это не определишь

Создавать темы 03-Дек-2013 20:28

[Профиль]  [ЛС] 

bashi

Стаж: 5 лет 8 месяцев

Сообщений: 42

mansurjon, у меня почему не качает помошти

Создавать темы 03-Дек-2013 22:41

[Профиль]  [ЛС] 

Sayfah

Стаж: 4 года

Сообщений: 15

СПАСИБА КИНО КЛАССНЫЙ

Создавать темы 04-Дек-2013 10:06

[Профиль]  [ЛС] 

19ян73

Стаж: 5 лет 10 месяцев

Сообщений: 133

Симпатии: 2

Чем больше становится скачавших,тем меньше скорость!Это шутка такая? Или у них совесть вместе с окончанием закачки кончается?

Создавать темы 04-Дек-2013 21:19

[Профиль]  [ЛС] 

flash008

Стаж: 5 лет 9 месяцев

Сообщений: 99

На конец то! Спасибо

Создавать темы 04-Дек-2013 23:43

[Профиль]  [ЛС] 

timspecial

Стаж: 3 года 10 месяцев

Сообщений: 2

Ждем скорости ! ребят выручайте!

Создавать темы 05-Дек-2013 01:57

[Профиль]  [ЛС] 

extrimal1994

Стаж: 4 года 8 месяцев

Сообщений: 153

Симпатии: 26

раздаю со скоростью 11мб\с , незнаю как у вас нету скорости

Создавать темы 05-Дек-2013 07:15

[Профиль]  [ЛС] 

Azamat1339

Стаж: 4 года 3 месяца

Сообщений: 10

Жду HD, как выйдет сразу скачаю))))))

Создавать темы 05-Дек-2013 16:51

[Профиль]  [ЛС] 
Показать сообщения:    
Ответить на тему

Текущее время: 23-Окт 00:22

Часовой пояс: UTC + 5



Вы не можете начинать темы
Вы не можете отвечать на сообщения
Вы не можете редактировать свои сообщения
Вы не можете удалять свои сообщения
Вы не можете голосовать в опросах
Вы не можете прикреплять файлы к сообщениям
Вы не можете скачивать файлы