Турбо в 3Д / Turbo 3D (Дэвид Сорен / David Soren) [2013 г., Мультфильм, Комедия, Приключения, Семейный, Спорт, BDRip] Dub + Dub(Ukr) + Eng + Sub (Rus, Ukr, Eng)

Ответить на тему
 

NEO_texas ®

Стаж: 5 лет 6 месяцев

Сообщений: 12

Симпатии: 1

Турбо в 3Д / Turbo 3D
«Быстрее, еще быстрее!»
Год выпуска: 2013
Страна: США (20th Century Fox, DreamWorks Animation SKG)
Жанр: Мультфильм, Комедия, Приключения, Семейный, Спорт
Продолжительность: 1:35:41
Перевод: Профессиональный (полное дублирование)
Режиссер: Дэвид Сорен / David Soren
Роли озвучивали (дублировали):
Turbo - Райан Рейнольдс (Тимур Родригез)
Chet - Пол Джаматти
Tito - Майкл Пенья
Smoove Move - Снуп Догг (Саймон)
Burn - Майя Рудольф (Юлия Морозова)
Paz - Мишель Родригес
Whiplash - Сэмюэл Л. Джексон (Станислав Концевич)
Angelo - Луис Гусман
Guy Gagné - Билл Хейдер
Skidmark - Бен Шварц (Олег Куликович)
Bobby - Ричард Дженкинс
Kim Ly - Кен Жонг

Описание:
Ничто так не раздражает темпераментную, мечтающую о скорости улитку с говорящим именем Турбо, как неспешная жизнь, медленные разговоры, заторможенные соседи. Пусть наш герой выглядит большим чудаком в этом вялом, неторопливом мире, пусть он идёт вопреки закону природы о «рождённом ползать», но если в сердце горит «пламенный мотор», а душа верит в чудо, оно просто не имеет права не произойти!
Качество: BDRip
Формат: MKV
Формат 3D: Anamorph OverUnder / Вертикальная анаморфная стереопара
Порядок ракурсов: левый ракурс первый
Видео кодек: H.264
Аудио кодек: AC3
Видео: AVC / 23,976 fps / 1920х1080p / 7491 Kbps
Аудио:
#1 - Русский / AC3 / 48 KHz / 5.1 ch / 640 Kbps (Дубляж - BD3D EUR )
#2 - Украинский / AC3 / 48 KHz / 5.1 ch / 448 Kbps (Дубляж - BD3D EUR )
#3 - Английский / AC3 / 48 KHz / 5.1 ch / 640 Kbps (Original - BD3D EUR)-

Скриншоты


MediaInfo

D:\NEO\777\Turbo(2013)3D-halfOU(Ash61)\Turbo(2013)3D-halfOU(Ash61).mkv
  General
    Unique ID : 244407518489492698581876054781259419887 (0xB7DF2D04748001F599D65F9692F410EF)
    Complete name : D:\NEO\777\Turbo(2013)3D-halfOU(Ash61)\Turbo(2013)3D-halfOU(Ash61).mkv
    Format : Matroska
    Format version : Version 2
    File size : 5.85 GiB
    Duration : 1h 35mn
    Overall bit rate : 8 761 Kbps
    Movie name : Турбо / Turbo (2013) 3D
    Encoded date : UTC 2013-11-01 01:35:14
    Writing application : mkvmerge v5.8.0 ('No Sleep / Pillow') built on Sep  2 2012 15:37:04
    Writing library : libebml v1.2.3 + libmatroska v1.3.0
  Video #1
    ID : 1
    Format : AVC
    Format/Info : Advanced Video Codec
    Format profile : [email protected]
    Format settings, CABAC : Yes
    Format settings, ReFrames : 4 frames
    Codec ID : V_MPEG4/ISO/AVC
    Duration : 1h 35mn
    Bit rate : 6 858 Kbps
    Width : 1 920 pixels
    Height : 1 080 pixels
    Display aspect ratio : 16:9
    Frame rate mode : Constant
    Frame rate : 23.976 fps
    Color space : YUV
    Chroma subsampling : 4:2:0
    Bit depth : 8 bits
    Scan type : Progressive
    Bits/(Pixel*Frame) : 0.138
    Stream size : 4.58 GiB (78%)
    Title : BDRip by Ash61
    Writing library : x264 core 129 r2245 bc13772
    Encoding settings : cabac=1 / ref=4 / deblock=1:-3:-3 / analyse=0x3:0x113 / me=umh / subme=10 / psy=1 / psy_rd=1.00:0.15 / mixed_ref=1 / me_range=32 / chroma_me=1 / trellis=2 / 8x8dct=1 / cqm=0 / deadzone=21,11 / fast_pskip=1 / chroma_qp_offset=-3 / threads=12 / lookahead_threads=2 / sliced_threads=0 / nr=0 / decimate=1 / interlaced=0 / bluray_compat=0 / constrained_intra=0 / bframes=9 / b_pyramid=2 / b_adapt=2 / b_bias=0 / direct=3 / weightb=1 / open_gop=0 / weightp=2 / keyint=250 / keyint_min=23 / scenecut=40 / intra_refresh=0 / rc_lookahead=60 / rc=crf / mbtree=1 / crf=16.5 / qcomp=0.70 / qpmin=0 / qpmax=69 / qpstep=4 / vbv_maxrate=40000 / vbv_bufsize=30000 / crf_max=0.0 / nal_hrd=none / frame-packing=4 / ip_ratio=1.40 / aq=1:0.70
    Language : English
    Default : Yes
    Forced : No
  Audio #2
    ID : 2
    Format : AC-3
    Format/Info : Audio Coding 3
    Mode extension : CM (complete main)
    Format settings, Endianness : Big
    Codec ID : A_AC3
    Duration : 1h 35mn
    Bit rate mode : Constant
    Bit rate : 640 Kbps
    Channel(s) : 6 channels
    Channel positions : Front: L C R, Side: L R, LFE
    Sampling rate : 48.0 KHz
    Bit depth : 16 bits
    Compression mode : Lossy
    Stream size : 438 MiB (7%)
    Title : Дубляж - BD3D EUR
    Language : Russian
    Default : Yes
    Forced : No
  Audio #3
    ID : 3
    Format : AC-3
    Format/Info : Audio Coding 3
    Mode extension : CM (complete main)
    Format settings, Endianness : Big
    Codec ID : A_AC3
    Duration : 1h 35mn
    Bit rate mode : Constant
    Bit rate : 448 Kbps
    Channel(s) : 6 channels
    Channel positions : Front: L C R, Side: L R, LFE
    Sampling rate : 48.0 KHz
    Bit depth : 16 bits
    Compression mode : Lossy
    Stream size : 307 MiB (5%)
    Title : Дубляж - BD3D EUR
    Language : Ukrainian
    Default : No
    Forced : No
  Audio #4
    ID : 4
    Format : AC-3
    Format/Info : Audio Coding 3
    Mode extension : CM (complete main)
    Format settings, Endianness : Big
    Codec ID : A_AC3
    Duration : 1h 35mn
    Bit rate mode : Constant
    Bit rate : 640 Kbps
    Channel(s) : 6 channels
    Channel positions : Front: L C R, Side: L R, LFE
    Sampling rate : 48.0 KHz
    Bit depth : 16 bits
    Compression mode : Lossy
    Stream size : 438 MiB (7%)
    Title : Original - BD3D EUR
    Language : English
    Default : No
    Forced : No
  Text #5
    ID : 5
    Format : UTF-8
    Codec ID : S_TEXT/UTF8
    Codec ID/Info : UTF-8 Plain Text
    Title : Форсированные
    Language : Russian
    Default : Yes
    Forced : No
  Text #6
    ID : 6
    Format : UTF-8
    Codec ID : S_TEXT/UTF8
    Codec ID/Info : UTF-8 Plain Text
    Title : Форсированные
    Language : Ukrainian
    Default : No
    Forced : No
  Menu
    00:00:00.000 : :1
    00:03:29.626 : :2
    00:06:39.858 : :3
    00:08:34.222 : :4
    00:10:13.863 : :5
    00:13:25.096 : :6
    00:17:15.785 : :7
    00:21:53.354 : :8
    00:25:42.708 : :9
    00:28:24.494 : :10
    00:30:17.899 : :11
    00:34:20.892 : :12
    00:38:20.340 : :13
    00:40:45.109 : :14
    00:44:40.219 : :15
    00:47:40.941 : :16
    00:49:29.925 : :17
    00:53:28.956 : :18
    00:57:00.626 : :19
    00:59:38.825 : :20
    01:02:05.972 : :21
    01:05:50.780 : :22
    01:08:07.166 : :23
    01:13:08.801 : :24
    01:16:26.791 : :25
    01:19:48.450 : :26
    01:23:26.126 : :27
    01:26:29.726 : :28

Создавать темы 03-Дек-2013 08:17

[Профиль]  [ЛС] 
Показать сообщения:    
Ответить на тему

Текущее время: 17-Авг 13:07

Часовой пояс: UTC + 5



Вы не можете начинать темы
Вы не можете отвечать на сообщения
Вы не можете редактировать свои сообщения
Вы не можете удалять свои сообщения
Вы не можете голосовать в опросах
Вы не можете прикреплять файлы к сообщениям
Вы не можете скачивать файлы