Индюки: Назад в будущее / Free Birds (Джимми Хейуорд) (Комедия, Приключения,Мультфильмы, 2013) DVDRip (Лицензия)

Ответить на тему
 

Suxrob89 ®

Стаж: 7 лет 3 месяца

Сообщений: 933

Симпатии: 564

-Индюки: Назад в будущее / Free Birds-«Величайшее путешествие всех времён»- Год выпуска: 2013
Производство: США, Reel FX Creative Studios, Relativity Media
Жанр: Комедия, Приключения
Перевод: Дублированный (Лицензия)
Субтитры: Отсутствуют
Продолжительность: 01:27:18-Дата мировой премьеры: 26 сентября 2013
Дата российской премьеры: 31 октября 2013, «Парадиз»
Дата выхода DVD релиза: 24 декабря 2013, «Парадиз / Активижен»-Режиссер: Джимми Хейуорд
Продюсер: Скотт Можер, Алонсо Рувалькаба, Дэвид И. Штерн
Актеры: Оуэн Уилсон, Вуди Харрельсон, Эми Полер, Джордж Такей, Колм Мини, Кит Дэвид, Дэн Фоглер, Джимми Хейуорд, Кейтлин Мехер, Карлос Аласраки-Описание фильма:
Индюки Реджи и Джейк находят машину времени, чтобы отправиться на триста лет назад, дабы раз и навсегда вычеркнуть индейку из праздничного меню.- -Качество: DVDRip
Формат: AVI
Видео кодек: XviD
Аудио кодек: MP3
Видео: Xvid, 640x336, 980 kb/s
Аудио: MP3, 48.0 KHz, 2 ch, 128kbps

Media info

Общее
Полное имя                               : D:\Раздачи\Indjuki.Nazad.v.budushhee.2013.D.DVDRip.700MB.avi
Формат                                   : AVI
Формат/Информация                        : Audio Video Interleave
Размер файла                             : 698 Мбайт
Продолжительность                        : 1 ч. 27 м.
Общий поток                              : 1117 Кбит/сек
Программа кодирования                    : VirtualDubMod 1.5.10.3 | (build 2550/release)
Библиотека кодирования                   : VirtualDubMod build 2550/release
Видео
Идентификатор                            : 0
Формат                                   : MPEG-4 Visual
Профиль формата                          : Advanced [email protected]
Параметр BVOP формата                    : 1
Параметр QPel формата                    : Нет
Параметр GMC формата                     : Без точки перехода
Параметр матрицы формата                 : Выборочная
Идентификатор кодека                     : XVID
Идентификатор кодека/Подсказка           : XviD
Продолжительность                        : 1 ч. 27 м.
Битрейт                                  : 980 Кбит/сек
Ширина                                   : 640 пикселей
Высота                                   : 336 пикселей
Соотношение сторон                       : 1,905
Частота кадров                           : 25,000 кадров/сек
Цветовое пространство                    : YUV
Субдискретизация насыщенности            : 4:2:0
Битовая глубина                          : 8 бит
Тип развёртки                            : Прогрессивная
Метод сжатия                             : С потерями
Бит/(Пиксели*Кадры)                      : 0.182
Размер потока                            : 612 Мбайт (88%)
Библиотека кодирования                   : XviD 1.2.1 (UTC 2008-12-04)
Аудио
Идентификатор                            : 1
Формат                                   : MPEG Audio
Версия формата                           : Version 1
Профиль формата                          : Layer 3
Идентификатор кодека                     : 55
Идентификатор кодека/Подсказка           : MP3
Продолжительность                        : 1 ч. 27 м.
Вид битрейта                             : Постоянный
Битрейт                                  : 128 Кбит/сек
Каналы                                   : 2 канала
Частота                                  : 48,0 КГц
Метод сжатия                             : С потерями
Размер потока                            : 79,9 Мбайт (11%)
Выравнивание                             : Соединение по промежуткам
Продолжительность промежутка             : 40  мс. (1,00 видеокадр)
Время предзагрузки промежутка            : 504  мс.
Библиотека кодирования                   : LAME3.99r
Настройки программы                      : -m s -V 4 -q 2 -lowpass 17 -b 128

Скриншоты

Создавать темы 04-Дек-2013 07:33

[Профиль]  [ЛС] 

bashi

Стаж: 5 лет 8 месяцев

Сообщений: 42

Suxrob89, скорость дай

Создавать темы 04-Дек-2013 09:24

[Профиль]  [ЛС] 

Sayfah

Стаж: 4 года

Сообщений: 15

скорость дайте

Создавать темы 04-Дек-2013 22:40

[Профиль]  [ЛС] 
Показать сообщения:    
Ответить на тему

Текущее время: 18-Ноя 06:01

Часовой пояс: UTC + 5



Вы не можете начинать темы
Вы не можете отвечать на сообщения
Вы не можете редактировать свои сообщения
Вы не можете удалять свои сообщения
Вы не можете голосовать в опросах
Вы не можете прикреплять файлы к сообщениям
Вы не можете скачивать файлы