Ченнайский экспресс / Chennai Express (Рохит Шетти) [2013 г., боевик, мелодрама, комедия, HDRip][LVO]

Ответить на тему
 

Suxrob89 ®

Стаж: 7 лет 2 месяца

Сообщений: 933

Симпатии: 564

- -Ченнайский экспресс / Chennai Express- Год выпуска: 2013
Страна: Индия
Студия: Red Chillies Entertainment, UTV Motion Pictures
Жанр: боевик, мелодрама, комедия
Продолжительность: 02:21:19
Перевод: Любительский (многоголосый закадровый)-Режиссер: Рохит Шетти-В ролях: Шах Рукх Кхан, Дипика Падукон, Сатьярадж, Никитин Дхир, Приямани, Джимми Моусес, Лекх Тандон, Сачин Тендулкар-Описание: Герой путешествует из столицы кинематографа Мумбаи в Рамешварам. Во время этого путешествия с ним происходят настоящие приключения. Именно в это самое время он встречает молодую девушку из Мадраса…- -Качество: HDRip
Формат: AVI
Видео кодек: XviD
Аудио кодек: AC3
Видео: 720x304 (2.35:1), 24.000 fps, XviD, 1629 kbps avg, 0.310 bit/pixel
Аудио: 48 kHz, AC3 Dolby Digital, 6ch, 448 kbps

Media info

D:\Chennai.Express.2013.HDRip.avi
   General
      Complete name : D:\Chennai.Express.2013.HDRip.avi
      Format : AVI
      Format/Info : Audio Video Interleave
      Format profile : OpenDML
      File size : 2.06 GiB
      Duration : 2h 21mn
      Overall bit rate : 2 089 Kbps
      Movie name : Chennai.Express.2013.HDRip
      Director : rip by maygli
      Writing application : VirtualDubModRus 1.5.10.2 (build 2542/release)
      Copyright : www.starbit.org   (RG Rulya74)
   Video #0
      ID : 0
      Format : MPEG-4 Visual
      Format profile : Advanced [email protected]
      Format settings, BVOP : 1
      Format settings, QPel : No
      Format settings, GMC : No warppoints
      Format settings, Matrix : Custom
      Codec ID : XVID
      Codec ID/Hint : XviD
      Duration : 2h 21mn
      Bit rate : 1 629 Kbps
      Width : 720 pixels
      Height : 304 pixels
      Display aspect ratio : 2.35:1
      Frame rate : 24.000 fps
      Color space : YUV
      Chroma subsampling : 4:2:0
      Bit depth : 8 bits
      Scan type : Progressive
      Compression mode : Lossy
      Bits/(Pixel*Frame) : 0.310
      Stream size : 1.61 GiB (78%)
      Writing library : XviD 65
   Audio #1
      ID : 1
      Format : AC-3
      Format/Info : Audio Coding 3
      Mode extension : CM (complete main)
      Format settings, Endianness : Big
      Codec ID : 2000
      Duration : 2h 21mn
      Bit rate mode : Constant
      Bit rate : 448 Kbps
      Channel(s) : 6 channels
      Channel positions : Front: L C R, Side: L R, LFE
      Sampling rate : 48.0 KHz
      Bit depth : 16 bits
      Compression mode : Lossy
      Stream size : 453 MiB (21%)
      Alignment : Split accross interleaves
      Interleave, duration : 42 ms (1.00 video frame)
      Interleave, preload duration : 500 ms
      Title : Ëþáèòåëüñêèé (ìíîãîãîëîñûé çàêàäðîâûé)

Скриншоты

Создавать темы 04-Дек-2013 08:15

[Профиль]  [ЛС] 

davronito

Стаж: 6 лет 8 месяцев

Сообщений: 10

Дайте газу. Чего то не качается, уже 3 дня, ещё 34% скачал... Буду помогать после скачка

Создавать темы 06-Дек-2013 22:06

[Профиль]  [ЛС] 

Imperiya

Стаж: 6 лет 6 месяцев

Сообщений: 275

Симпатии: 4

какой разниса в этом Ченнайский экспресс / Chennai Express (Рохит Шетти / Rohit Shetty) [2013, Индия, Комедия, НDRip] MVO (ICG) + Sub Rus + Original тут перевод одинокий или нет?

Создавать темы 06-Дек-2013 22:54

[Профиль]  [ЛС] 

Shax-Boz

Стаж: 4 года 2 месяца

Сообщений: 5

оценка фильма 3 из 10. Зря только скачивал

Создавать темы 07-Дек-2013 23:50

[Профиль]  [ЛС] 

davronito

Стаж: 6 лет 8 месяцев

Сообщений: 10

Я на раздаче.

Создавать темы 08-Дек-2013 12:15

[Профиль]  [ЛС] 

Hasanbek

Стаж: 6 лет 5 месяцев

Сообщений: 161

Симпатии: 6

дайте скорость пожалуйста

Создавать темы 08-Дек-2013 19:30

[Профиль]  [ЛС] 

fara1292

Стаж: 5 лет 1 месяц

Сообщений: 97

Симпатии: 12

класс фильм

Создавать темы 11-Дек-2013 15:34

[Профиль]  [ЛС] 

Shosho

Стаж: 4 года 7 месяцев

Сообщений: 30

ОФИГЕННЫЙ ФИЛЬМ!!!!!!!!!!! СПАСИБО ОГРОМНОЕ!!!!!!!!!!

Создавать темы 11-Дек-2013 23:07

[Профиль]  [ЛС] 

Palach-33

Стаж: 3 года 10 месяцев

Сообщений: 2

дайте пожалуйста скорость я перви раз на сайте буду помогать

Создавать темы 17-Дек-2013 02:26

[Профиль]  [ЛС] 

JaZiRa

Стаж: 3 года 10 месяцев

Сообщений: 9

Симпатии: 2

о. о. о. Шахруххан буду качать обязательно tx

Создавать темы 17-Дек-2013 09:38

[Профиль]  [ЛС] 

rain

Стаж: 7 лет 5 месяцев

Сообщений: 8

второй раз скачиваю почему не воспроизводиться ? У кого нить было так?

Создавать темы 23-Дек-2013 16:59

[Профиль]  [ЛС] 
Показать сообщения:    
Ответить на тему

Текущее время: 22-Окт 07:55

Часовой пояс: UTC + 5



Вы не можете начинать темы
Вы не можете отвечать на сообщения
Вы не можете редактировать свои сообщения
Вы не можете удалять свои сообщения
Вы не можете голосовать в опросах
Вы не можете прикреплять файлы к сообщениям
Вы не можете скачивать файлы