Грязь / Filth (Джон С. Бейрд / Jon S. Baird) [2013, Великобритания, драма, комедия, криминал, DVDRip] Dub

Страницы :  1, 2, 3, 4, 5  След.

Ответить на тему
 

victor0778 ®

Стаж: 6 лет 8 месяцев

Сообщений: 1670

Симпатии: 142

Грязь / Filth-«This Little Piggy went to town!»-
Год выпуска: 2013
Страна: Великобритания
Жанр: драма, комедия, криминал
Продолжительность: 01:33:35
Перевод: Профессиональный (дублированный)[лицензия]-Режиссер: Джон С. Бейрд / Jon S. Baird-В ролях: Джеймс МакЭвой, Джейми Белл, Эдди Марсан, Джим Бродбент, Имоджен Путс, Шона МакДональд, Ширли Хендерсон, Джон Сессионс, Гари Льюис, Иман Эллиотт, Йен де Кестекер, Джоанн Фроггатт-Описание: Главный герой - продажный шотландский полицейский Брюс Робертсон, помешанный на сексе и кокаине. Ему бы надо расследовать убийство, но ему сильно мешают собственные странности, привычка разыгрывать коллег и беготня за девушками. За Робертсоном присматривают его напарник Рэй Леннокс и начальник Боб Тоал.-Качество: DVDRip
Формат: AVI
Видео кодек: XviD
Аудио кодек: AC3
Видео: 1697 kbps, 720x304
Аудио: AC3, 384 kb/s (6 ch)-   -Возрастное ограничение 18+-

МедиаИнфо

General
Complete name : G:\Filth.2013.D.DVDRip.1400Mb[TAS-IX.NET].avi
Format : AVI
Format/Info : Audio Video Interleave
File size : 1.37 GiB
Duration : 1h 33mn
Overall bit rate : 2 091 Kbps
Writing application : VirtualDubMod 1.5.10.3 | www.virtualdub-fr.org || (build 2550/release)
Writing library : VirtualDubMod build 2550/release
Video
ID : 0
Format : MPEG-4 Visual
Format profile : Advanced [email protected]
Format settings, BVOP : 1
Format settings, QPel : No
Format settings, GMC : No warppoints
Format settings, Matrix : Custom
Codec ID : XVID
Codec ID/Hint : XviD
Duration : 1h 33mn
Bit rate : 1 698 Kbps
Width : 720 pixels
Height : 304 pixels
Display aspect ratio : 2.35:1
Frame rate : 25.000 fps
Color space : YUV
Chroma subsampling : 4:2:0
Bit depth : 8 bits
Scan type : Progressive
Compression mode : Lossy
Bits/(Pixel*Frame) : 0.310
Stream size : 1.11 GiB (81%)
Writing library : XviD 1.2.1 (UTC 2008-12-04)
Audio
ID : 1
Format : AC-3
Format/Info : Audio Coding 3
Mode extension : CM (complete main)
Codec ID : 2000
Duration : 1h 33mn
Bit rate mode : Constant
Bit rate : 384 Kbps
Channel(s) : 6 channels
Channel positions : Front: L C R, Side: L R, LFE
Sampling rate : 48.0 KHz
Bit depth : 16 bits
Compression mode : Lossy
Stream size : 257 MiB (18%)
Alignment : Split accross interleaves
Interleave, duration : 40 ms (1.00 video frame)
Interleave, preload duration : 500 ms

Скриншоты



Последний раз редактировалось: victor0778 (2014-01-05 10:44), всего редактировалось 2 раз(а)

Создавать темы 05-Дек-2013 02:21

[Профиль]  [ЛС] 

sarvar-aka

Стаж: 5 лет

Сообщений: 34

Симпатии: 1

Братан! Да ты святой человек! Ты даже представить не можешь, как сильно я ждал этот фильм!

Создавать темы 05-Дек-2013 22:37

[Профиль]  [ЛС] 

t1man

Стаж: 5 лет

Сообщений: 75

Кто нибудь посмотрел фильм как оно?

Создавать темы 05-Дек-2013 22:38

[Профиль]  [ЛС] 

victor0778 ®

Стаж: 6 лет 8 месяцев

Сообщений: 1670

Симпатии: 142

Кто нибудь посмотрел фильм как оно?
сам не смотрел, но по отзывам в мире, многие его ждали и 90% в восторге, а 10% в ужасе

Создавать темы 06-Дек-2013 00:27

[Профиль]  [ЛС] 

Maksimum02

Стаж: 4 года 9 месяцев

Сообщений: 35

Симпатии: 1

в целом фильм крут

Создавать темы 06-Дек-2013 19:24

[Профиль]  [ЛС] 

Treysfull

Стаж: 6 лет 4 месяца

Сообщений: 9

У кого нибудь есть с оригинальной звуковой дорожкой, выложите ...

Создавать темы 06-Дек-2013 20:56

[Профиль]  [ЛС] 

Khar

Стаж: 6 лет 9 месяцев

Сообщений: 30

Симпатии: 1

Фильм классный - любителям английского кинематографа рекомендую.

Создавать темы 06-Дек-2013 21:23

[Профиль]  [ЛС] 

MyNameIsJava

Стаж: 3 года 11 месяцев

Сообщений: 6

victor0778, cпасибо за релиз, не скатали с соседнего трекера) а то 50% с другого трекера берут...

Создавать темы 06-Дек-2013 22:12

[Профиль]  [ЛС] 

extrimal1994

Стаж: 4 года 8 месяцев

Сообщений: 153

Симпатии: 26

victor0778, cпасибо за релиз, не скатали с соседнего трекера) а то 50% с другого трекера берут...
даже если и берут то что тут такого интересно? с рутрекеров почти все берут, это тоже соседний трекер как бы ;)

Создавать темы 06-Дек-2013 22:21

[Профиль]  [ЛС] 

MyNameIsJava

Стаж: 3 года 11 месяцев

Сообщений: 6

extrimal1994, со внешки автору труднее, чем с тазика...

Создавать темы 06-Дек-2013 22:24

[Профиль]  [ЛС] 

victor0778 ®

Стаж: 6 лет 8 месяцев

Сообщений: 1670

Симпатии: 142

extrimal1994, со внешки автору труднее, чем с тазика...
это вы зря, я этот фильм с внешки скачал за 35 минут, сколько бы я его качал с тазика? и я ещё раз повторюсь что я ни где кроме как на внешних трекерах и этом, не зарегистрирован.

Создавать темы 07-Дек-2013 01:09

[Профиль]  [ЛС] 

AeRoNHanD

Стаж: 5 лет

Сообщений: 198

Симпатии: 3

На постере актер случайно не из фильма Транс????

Создавать темы 07-Дек-2013 01:21

[Профиль]  [ЛС] 

mariolover

Стаж: 5 лет 5 месяцев

Сообщений: 16

Симпатии: 1

да он самый :) если у кого есть саундтреки скиньте пожалуйста :) Фильм зачетный - Да пролетел он как то мимо всех - может не особо пиарили но смотреть стоит в стиле Духлесс

Создавать темы 07-Дек-2013 03:05

[Профиль]  [ЛС] 

SeabiscuiT

Стаж: 4 года 7 месяцев

Сообщений: 56

Симпатии: 4

а че собственно оправдываться? какая разница откуда взяли фильм...зато у нас появляется возможность скачать и посмотреть...

Создавать темы 07-Дек-2013 18:46

[Профиль]  [ЛС] 

ecliiiipse

Стаж: 4 года 4 месяца

Сообщений: 22

а золотая раздача будет

Создавать темы 07-Дек-2013 20:22

[Профиль]  [ЛС] 
Показать сообщения:    
Ответить на тему

Текущее время: 17-Окт 18:28

Часовой пояс: UTC + 5



Вы не можете начинать темы
Вы не можете отвечать на сообщения
Вы не можете редактировать свои сообщения
Вы не можете удалять свои сообщения
Вы не можете голосовать в опросах
Вы не можете прикреплять файлы к сообщениям
Вы не можете скачивать файлы