Тор 2: Царство тьмы / Thor: The Dark World ( Алан Тейлор ) [2013 г., Фэнтези, Боевик, Приключения, WEB-DLRip][Чистый звук]

Страницы :  1, 2  След.

Тема закрыта
 

Suxrob89 ®

Стаж: 7 лет 3 месяца

Сообщений: 933

Симпатии: 564

- -Тор 2: Царство тьмы / Thor: The Dark World - Год выпуска : 2013
Производство: США
Жанр: Фэнтези, Боевик, Приключения
Продолжительность: 01:52:04
Перевод : Дублированный [Чистый звук]-Режиссер: Алан Тейлор-В ролях: Крис Хемсворт , Натали Портман , Том Хиддлстон , Энтони Хопкинс , Кристофер Экклстон , Джейми Александер , Закари Левай , Рэй Стивенсон , Таданобу Асано , Идрис Эльба-О фильме: Тору предстоит сразиться за спасение Земли и Девяти Миров от таинственного врага из времен, предшествовавших возникновению вселенной. После событий «Тора» и «Мстителей» главный герой борется за восстановление порядка в космосе, но древняя раса во главе с мстительным Малекитом возвращается, чтобы погрузить вселенную обратно во тьму. Столкнувшись с врагом, которому не способен противостоять ни Один, ни весь Асгард, Тор отправляется в самое рискованное путешествие, которое воссоединит его с Джейн Фостер с Земли и заставит пожертвовать всем ради спасения вселенной.- -Бюджет: $ 170 000 000
Сборы в США: $ 186 705 086
Сборы в мире: + $ 404 400 000 = $ 591 105 086
Сборы в России: $ 35 531 418-Качество: WEB-DLRip [Рип с WEBDL 720p]
Формат: AVI
Видео: 1725 kb/s, 720x304
Аудио: AC3, 128 kb/s (2 ch)
Субтитры: Русские (вшитые на речь Эльфов)

Media info

E:\Tor.2.Tsarstvo.tmy.2013.D.WEB-DLRip.1400MB.avi
General
Complete name : E:\Tor.2.Tsarstvo.tmy.2013.D.WEB-DLRip.1400MB.avi
Format : AVI
Format/Info : Audio Video Interleave
File size : 1.46 GiB
Duration : 1h 52mn
Overall bit rate : 1 862 Kbps
Writing application : VirtualDubMod 1.5.10.2 (build 2540/release)
Writing library : VirtualDubMod build 2540/release
Video #0
ID : 0
Format : MPEG-4 Visual
Format profile : Advanced [email protected]
Format settings, BVOP : 2
Format settings, QPel : No
Format settings, GMC : No warppoints
Format settings, Matrix : Default (MPEG)
Codec ID : XVID
Codec ID/Hint : XviD
Duration : 1h 52mn
Bit rate : 1 725 Kbps
Width : 720 pixels
Height : 304 pixels
Display aspect ratio : 2.35:1
Frame rate : 23.976 fps
Color space : YUV
Chroma subsampling : 4:2:0
Bit depth : 8 bits
Scan type : Progressive
Compression mode : Lossy
Bits/(Pixel*Frame) : 0.329
Stream size : 1.35 GiB (93%)
Writing library : XviD 1.2.1 (UTC 2008-12-04)
Audio #1
ID : 1
Format : AC-3
Format/Info : Audio Coding 3
Mode extension : CM (complete main)
Format settings, Endianness : Big
Codec ID : 2000
Duration : 1h 52mn
Bit rate mode : Constant
Bit rate : 128 Kbps
Channel count : 2 channels
Channel positions : Front: L R
Sampling rate : 48.0 KHz
Bit depth : 16 bits
Compression mode : Lossy
Stream size : 103 MiB (7%)
Alignment : Split accross interleaves
Interleave, duration : 42 ms (1.00 video frame)
Interleave, preload duration : 500 ms

Скриншоты



Последний раз редактировалось: Suxrob89 (2014-02-05 14:42), всего редактировалось 3 раз(а)

Создавать темы 05-Дек-2013 06:28

[Профиль]  [ЛС] 

truman

Стаж: 5 лет 8 месяцев

Сообщений: 26

Симпатии: 1

конец хорошо получился)

Создавать темы 05-Дек-2013 19:25

[Профиль]  [ЛС] 

Quality

Стаж: 7 лет 4 месяца

Сообщений: 55

Симпатии: 3

че там по качеству?? лучше кам рипа? оцифровочка?

Создавать темы 14-Дек-2013 01:25

[Профиль]  [ЛС] 

sherzodjon

Стаж: 6 лет 11 месяцев

Сообщений: 18

со скриншота можно сказать нет

Создавать темы 17-Дек-2013 17:46

[Профиль]  [ЛС] 

whiteblack

Стаж: 5 лет 8 месяцев

Сообщений: 16

раздавайте!!!!

Создавать темы 19-Дек-2013 20:21

[Профиль]  [ЛС] 

Stark

Стаж: 3 года 10 месяцев

Сообщений: 4

Спасибо большое

Создавать темы 21-Дек-2013 20:24

[Профиль]  [ЛС] 

DoDiK_DoDa

Стаж: 5 лет 4 месяца

Сообщений: 35

Симпатии: 36

а когда лицуха?

Создавать темы 29-Дек-2013 11:21

[Профиль]  [ЛС] 

netmao

Стаж: 4 года 10 месяцев

Сообщений: 9

уууу раздачу поставте плиз

Создавать темы 30-Дек-2013 21:38

[Профиль]  [ЛС] 

netmao

Стаж: 4 года 10 месяцев

Сообщений: 9

очень хочется посмотреть

Создавать темы 30-Дек-2013 21:38

[Профиль]  [ЛС] 

baha76

Стаж: 3 года 10 месяцев

Сообщений: 24

скачал. посмотрел не много. качество плохое для меня и китайские титры.
вобщем не советую. лучше дождаться лучшего качества.

Создавать темы 31-Дек-2013 22:03

[Профиль]  [ЛС] 

victor0778

Стаж: 6 лет 9 месяцев

Сообщений: 1670

Симпатии: 142

Нафига картинку обрезают, субтитры так и остались bn

Создавать темы 07-Янв-2014 08:40

[Профиль]  [ЛС] 

Feruz_22

Стаж: 6 лет 4 месяца

Сообщений: 37

Симпатии: 6

DoDiK_DoDa, 26 февраля

Создавать темы 07-Янв-2014 09:02

[Профиль]  [ЛС] 

Yokko

Стаж: 4 года 6 месяцев

Сообщений: 64

Симпатии: 1

походу 3 часть будет)))) Локи какашка)))

Создавать темы 07-Янв-2014 15:46

[Профиль]  [ЛС] 

X3JumperRaZ0R

Стаж: 5 лет 4 месяца

Сообщений: 177

Симпатии: 151

ЭТО РЕАЛЬНЫЙ ПОСТЕР :D

Создавать темы 16-Янв-2014 00:03

[Профиль]  [ЛС] 

РомаBlack

Стаж: 5 лет 10 месяцев

Сообщений: 113

Вай XD

Создавать темы 18-Янв-2014 13:58

[Профиль]  [ЛС] 
Показать сообщения:    
Тема закрыта

Текущее время: 19-Ноя 06:18

Часовой пояс: UTC + 5



Вы не можете начинать темы
Вы не можете отвечать на сообщения
Вы не можете редактировать свои сообщения
Вы не можете удалять свои сообщения
Вы не можете голосовать в опросах
Вы не можете прикреплять файлы к сообщениям
Вы не можете скачивать файлы