Чудаки: Несносный дед / Jackass Presents: Bad Grandpa (Джефф Треймейн / Jeff Tremaine) [2013, США, Комедия, HDRip] MVO

Ответить на тему
 

Suxrob89 ®

Стаж: 7 лет

Сообщений: 933

Симпатии: 564

-Чудаки: Несносный дед / Jackass Presents: Bad Grandpa- Страна: США
Жанр: Комедия
Год выпуска: 2013
Продолжительность: 01:42:13
Перевод: Профессиональный многоголосый закадровый
Cубтитры: нет
Оригинальная аудиодорожка: нет-Режиссер: Джефф Треймейн / Jeff Tremaine-В ролях: Джонни Ноксвилл, Джексон Николл, Фил Марджера.-Описание: 86-летний старикан по имени Ирвинг Зисман путешествует по Америке с необычным компаньоном — восьмилетним «внуком» Билли.
По дороге заводной дедушка знакомит впечатлительного Билли с людьми, местами и ситуациями, которые вряд ли укладываются в рамки привычных представлений о воспитании. Парочка столкнется со стриптизерами, разъяренными участниками помпезного детского конкурса красоты и их не менее злыми мамашами, скорбящими посетителями панихиды, завсегдатаями бара для байкеров и другими ничего не подозревающими гражданами США.- -Качество: HDRip
Формат: AVI
Видео кодек: XviD
Аудио кодек: AC3
Видео: 1646 kb/s, 720x400, 23.976 fps
Aудио: AC3, 384 kb/s (6 ch), 48 Кгц

MediaInfo

Format : AVI
Format/Info : Audio Video Interleave
File size : 1.46 GiB
Duration : 1h 42mn
Overall bit rate : 2 040 Kbps
Writing application : VirtualDubMod 1.5.10.2 (build 2540/release)
Writing library : VirtualDubMod build 2540/release
Video #0
ID : 0
Format : MPEG-4 Visual
Format profile : Advanced [email protected]
Format settings, BVOP : 2
Format settings, QPel : No
Format settings, GMC : No warppoints
Format settings, Matrix : Custom
Codec ID : XVID
Codec ID/Hint : XviD
Duration : 1h 42mn
Bit rate : 1 646 Kbps
Width : 720 pixels
Height : 400 pixels
Display aspect ratio : 16:9
Frame rate : 23.976 fps
Color space : YUV
Chroma subsampling : 4:2:0
Bit depth : 8 bits
Scan type : Progressive
Compression mode : Lossy
Bits/(Pixel*Frame) : 0.238
Stream size : 1.18 GiB (81%)
Writing library : XviD 1.2.1 (UTC 2008-12-04)
Audio #1
ID : 1
Format : AC-3
Format/Info : Audio Coding 3
Mode extension : CM (complete main)
Format settings, Endianness : Big
Codec ID : 2000
Duration : 1h 42mn
Bit rate mode : Constant
Bit rate : 384 Kbps
Channel(s) : 6 channels
Channel positions : Front: L C R, Side: L R, LFE
Sampling rate : 48.0 KHz
Bit depth : 16 bits
Compression mode : Lossy
Stream size : 281 MiB (19%)
Alignment : Split accross interleaves
Interleave, duration : 42 ms (1.00 video frame)
Interleave, preload duration : 500 ms

Скриншот c названием фильма

Скриншоты



Последний раз редактировалось: Suxrob89 (2014-01-25 06:40), всего редактировалось 3 раз(а)

Создавать темы 05-Дек-2013 06:36

[Профиль]  [ЛС] 

akbar_jx

Стаж: 4 года 9 месяцев

Сообщений: 1

Супер фильм. спасибо еще раз

Создавать темы 07-Янв-2014 01:18

[Профиль]  [ЛС] 

Nijelmannn

Стаж: 4 года 10 месяцев

Сообщений: 151

Симпатии: 1

Давно так не смеялся, аж хохотал во весь дом! Стоящий фильм.

Создавать темы 09-Янв-2014 00:55

[Профиль]  [ЛС] 

Shkiper

Стаж: 4 года 9 месяцев

Сообщений: 79

Симпатии: 17

Это лицензия?

Создавать темы 25-Янв-2014 08:05

[Профиль]  [ЛС] 

death

Стаж: 5 лет 5 месяцев

Сообщений: 39

Спасибо, посмеялся на славу!!!

Создавать темы 25-Янв-2014 08:38

[Профиль]  [ЛС] 

Sylent

Стаж: 4 года 10 месяцев

Сообщений: 14

Симпатии: 3

Давно ждал его! Спасибо!

Создавать темы 25-Янв-2014 09:38

[Профиль]  [ЛС] 

стич

Стаж: 5 лет 2 месяца

Сообщений: 18

ок я качяю норм кино )) спс

Создавать темы 25-Янв-2014 13:41

[Профиль]  [ЛС] 

denis_1997

Стаж: 3 года 6 месяцев

Сообщений: 1

как скачивать ? подскажите пожалуйста !!!

Создавать темы 29-Янв-2014 19:57

[Профиль]  [ЛС] 

death

Стаж: 5 лет 5 месяцев

Сообщений: 39

http://joxi.ru/NyPpUhjKTJDoLPGa-TA - нажми сюда выйдит скачка трекера потом его перенеси в УТОРЕНТ или биторент смотря что у тебя установленно

Создавать темы 29-Янв-2014 20:51

[Профиль]  [ЛС] 

4e6yPaIIIka

Стаж: 4 года 1 месяц

Сообщений: 1

встаньте на раздачу народ вообще скорости нет

Создавать темы 10-Фев-2014 16:17

[Профиль]  [ЛС] 

kama

Стаж: 4 года 3 месяца

Сообщений: 82

что значит закадровый?

Создавать темы 12-Фев-2014 21:09

[Профиль]  [ЛС] 

shaxa

Стаж: 4 года 2 месяца

Сообщений: 11

а почему 2013 он выщел 2014 года ?

Создавать темы 14-Фев-2014 21:42

[Профиль]  [ЛС] 

bezdelent

Стаж: 4 года 2 месяца

Сообщений: 20

Полная хрень

Создавать темы 24-Фев-2014 19:06

[Профиль]  [ЛС] 
Показать сообщения:    
Ответить на тему

Текущее время: 17-Авг 08:39

Часовой пояс: UTC + 5



Вы не можете начинать темы
Вы не можете отвечать на сообщения
Вы не можете редактировать свои сообщения
Вы не можете удалять свои сообщения
Вы не можете голосовать в опросах
Вы не можете прикреплять файлы к сообщениям
Вы не можете скачивать файлы