Последний рубеж / Homefront (Гэри Фледер / Gary Fleder) [2013 г., США, боевик, криминал, WEB-DLRip] Dub [Чистый звук]

Страницы :  1, 2  След.

Ответить на тему
 

Suxrob89 ®

Стаж: 7 лет

Сообщений: 933

Симпатии: 564

-Последний рубеж / Homefront-«На что ты готов ради защиты своей семьи?»- Год выпуска: 2013
Страна: США / Homefront Productions, Millennium Films, Nu-Image Films
Жанр: боевик, криминал
Продолжительность: 01:31:45
Перевод: Профессиональный (дублированный) [Чистый звук]
Субтитры: нет
Оригинальная аудиодорожка: нет-Режиссер: Гэри Фледер / Gary Fleder-В ролях: Джейсон Стэйтем, Джеймс Франко, Изабела Видович, Вайнона Райдер, Кейт Босворт, Клэнси Браун, Рашель Лефевр, Омар Бенсон Миллер, Маркус Хестер,
Фрэнк Грилло и др.-Описание: Фил Брокер — бывший агент из отдела борьбы с наркотиками. Фил переезжает в небольшой город вместе с семьей в надежде забыть прошлое. Но он узнает, что город только со стороны кажется тихим и спокойным местом, на самом деле он кишит насилием, наркотиками, а всем этим заправляет злодей по кличке Аллигатор…- -Качество: WEB-DLRip
Формат: AVI
Видео: 720x400 (1.80:1), 25 fps, XviD build 50 ~1738 kbps avg, 0.24 bit/pixel
Аудио: 48 kHz, AC3 Dolby Digital, 2/0 (L,R) ch, ~384 kbps

MI

E:\Posledniy.Rubej.2013.D.WEB-DLRip.1400M.avi
   General
      Complete name : E:\Posledniy.Rubej.2013.D.WEB-DLRip.1400M.avi
      Format : AVI
      Format/Info : Audio Video Interleave
      File size : 1.37 GiB
      Duration : 1h 31mn
      Overall bit rate : 2 133 Kbps
      Writing application : VirtualDubMod 1.5.10.2 (build 2540/release)
      Writing library : VirtualDubMod build 2540/release
   Video #0
      ID : 0
      Format : MPEG-4 Visual
      Format profile : Advanced [email protected]
      Format settings, BVOP : 2
      Format settings, QPel : No
      Format settings, GMC : No warppoints
      Format settings, Matrix : Default (MPEG)
      Codec ID : XVID
      Codec ID/Hint : XviD
      Duration : 1h 31mn
      Bit rate : 1 739 Kbps
      Width : 720 pixels
      Height : 400 pixels
      Display aspect ratio : 16:9
      Frame rate : 25.000 fps
      Color space : YUV
      Chroma subsampling : 4:2:0
      Bit depth : 8 bits
      Scan type : Progressive
      Compression mode : Lossy
      Bits/(Pixel*Frame) : 0.242
      Stream size : 1.11 GiB (82%)
      Writing library : XviD 1.2.1 (UTC 2008-12-04)
   Audio #1
      ID : 1
      Format : AC-3
      Format/Info : Audio Coding 3
      Mode extension : CM (complete main)
      Format settings, Endianness : Big
      Codec ID : 2000
      Duration : 1h 31mn
      Bit rate mode : Constant
      Bit rate : 384 Kbps
      Channel count : 2 channels
      Channel positions : Front: L R
      Sampling rate : 48.0 KHz
      Bit depth : 16 bits
      Compression mode : Lossy
      Stream size : 252 MiB (18%)
      Alignment : Split accross interleaves
      Interleave, duration : 40 ms (1.00 video frame)
      Interleave, preload duration : 500 ms

Скриншот c названием фильма

Скриншоты



Последний раз редактировалось: Suxrob89 (2014-02-07 06:10), всего редактировалось 3 раз(а)

Создавать темы 05-Дек-2013 16:33

[Профиль]  [ЛС] 

vanfank

Стаж: 4 года 3 месяца

Сообщений: 141

Симпатии: 5

Незнал что в россии снимали))) lol

Создавать темы 05-Дек-2013 18:51

[Профиль]  [ЛС] 

AeRoNHanD

Стаж: 4 года 10 месяцев

Сообщений: 198

Симпатии: 3

А почему в Россиском отделе кино Америка же сняла фильм????

Создавать темы 05-Дек-2013 19:42

[Профиль]  [ЛС] 

Tony_storm

Стаж: 4 года 4 месяца

Сообщений: 61

перенесите топик в свой раздел!!!!

Создавать темы 05-Дек-2013 20:58

[Профиль]  [ЛС] 

Топик был перенесен из форума CamRip\Telesync\SATRip\TVRip в форум CamRip\Telesync\SATRip\TVRip

Grock

Создавать темы 05-Дек-2013 21:41

 

MyNameIsJava

Стаж: 3 года 9 месяцев

Сообщений: 6

это мой релиз на день раньше...

Создавать темы 06-Дек-2013 22:20

[Профиль]  [ЛС] 

lexus assasin

Стаж: 4 года 2 месяца

Сообщений: 23

Как качество, отпишитесь

Создавать темы 07-Дек-2013 08:36

[Профиль]  [ЛС] 

shoxa91

Стаж: 4 года 11 месяцев

Сообщений: 23

в пару местах фильма есть обрезы в интересные моменты.
скорее всего это не полная версия фильма!

Создавать темы 08-Дек-2013 17:18

[Профиль]  [ЛС] 

FRON

Стаж: 4 года 10 месяцев

Сообщений: 46

а когда выйдет в HD????

Создавать темы 10-Дек-2013 22:00

[Профиль]  [ЛС] 

inspirer

Стаж: 7 лет

Сообщений: 33

Симпатии: 9

куда пропали сиды .....??

Создавать темы 14-Янв-2014 13:08

[Профиль]  [ЛС] 

Lonic

Стаж: 4 года 7 месяцев

Сообщений: 7

скорости плиз станте на раздачу

Создавать темы 17-Янв-2014 15:59

[Профиль]  [ЛС] 

Suxrob89 ®

Стаж: 7 лет

Сообщений: 933

Симпатии: 564

http://tas-ix.net/viewtopic.php?t=87462

Создавать темы 02-Фев-2014 08:39

[Профиль]  [ЛС] 

Топик был перенесен из форума CamRip\Telesync\SATRip\TVRip в форум Фильмы за 2013

Suxrob89

Создавать темы 07-Фев-2014 06:11

 

Tricks

Стаж: 4 года 9 месяцев

Сообщений: 602

Симпатии: 21

Фильм хороший всем советую

Создавать темы 07-Фев-2014 11:39

[Профиль]  [ЛС] 

titton

Стаж: 7 лет 1 месяц

Сообщений: 69

Симпатии: 2

ta ta дайте скорости

Создавать темы 07-Фев-2014 14:41

[Профиль]  [ЛС] 
Показать сообщения:    
Ответить на тему

Текущее время: 22-Авг 08:43

Часовой пояс: UTC + 5



Вы не можете начинать темы
Вы не можете отвечать на сообщения
Вы не можете редактировать свои сообщения
Вы не можете удалять свои сообщения
Вы не можете голосовать в опросах
Вы не можете прикреплять файлы к сообщениям
Вы не можете скачивать файлы