Шрек: Квадрология / Shrek: Quadrilogy (Эндрю Адамсон / Andrew Adamson, Вики Дженсон / Vicky Jenson, Келли Эсбёри / Kelly Asbury, Конрад Вернон / Conrad Vernon, Крис Миллер / Chris Miller) [2001, 2004, 2007, 2010 мультипликация, BDRip 720p | DVD5]2D

Ответить на тему
 

maxuz ®

Стаж: 6 лет 9 месяцев

Сообщений: 55

Симпатии: 3

--

Шрек

--Шрек
--Год выпуска: 2001-- США--Жанр: Фэнтези, Комедия, Приключения, Семейный, Мультфильм--Продолжительность: 01:30:04 |--Перевод
Профессиональный (Полное дублирование)|Blu-ray CEE|
Профессиональный (Многоголосый закадровый) |Superbit|
Профессиональный (Многоголосый закадровый) |Карусель #1|
Профессиональный (Многоголосый закадровый) |Киномания/Карусель #2|
Авторский (Одноголосый закадровый) |Дмитрий «Гоблин» Пучков|
Авторский (Одноголосый закадровый) |П.Гланц|
Авторский (Одноголосый закадровый) |А.Гаврилов|
Авторский (Одноголосый закадровый)|С.Визгунов|--Режиссер: Эндрю Адамсон / Andrew Adamson, Вики Дженсон / Vicky Jenson--Сценарий: Уильям Стейг / William Steig, Тед Эллиот / Ted Elliott, Терри Россио / Terry Rossio, Джо Стиллман / Joe Stillman, Роджер С.Х. Шульман / Roger S.H. Schulman--Продюсер:Тед Эллиот / Ted Elliott, Линда Ольшевски / Linda Olszewski, Стивен Спилберг / Steven Spielberg, Пенни Финкелман Кокс / Penney Finkelman Cox, Джейн Хартвелл / Jane Hartwell--Композитор:Эндрю Адамсон / Andrew Adamson, Леонард Коэн / Leonard Cohen, Ричи Корделл / Richie Cordell, Джофф Дин / Geoff Deane, Нил Даймонд / Neil Diamond--Художник: Джеймс Хегедус / James Hegedus, Айзис Массенден / Isis Mussenden, Гийом Аретос / Guillaume Aretos, Дуглас Роджерс / Douglas Rogers--Роли озвучивали: Майк Майерс(Shrek, Blind Mouse, озвучка,) Эдди Мёрфи (Donkey, озвучка,)Кэмерон Диаз (Princess Fiona, озвучка,)Джон Литгоу (Lord Farquaad, озвучка) Венсан Кассель(Monsieur Hood,озвучка)Питер Дэннис(Ogre Hunter, озвучка),Клив Пирс(Ogre Hunter, озвучка)Джим Каммингс(Captain of Guards, озвучка),Бобби Блок (Baby Bear, озвучка),Крис Миллер(Geppetto, Magic Mirror, озвучка)Коуди Камерон(Pinocchio, Three Pigs, озвучка)Кэтлин Фримен(Old Woman, озвучка)--Бюджет:$60 000 000
Маркетинг:$45 000 000
Сборы в США:$267 665 011
Сборы в России:$1 070 302
Сборы в мире:$484 409 218
Мировая премьера: 22 апреля 2001
Премьера (РФ):31 октября 2001, «Ист-Вест»
Релиз на Blu-ray: 30 ноября 2010, «Юниверсал Пикчерс Рус»--ОписаниеЖил да был в сказочном государстве большой зеленый великан по имени Шрек. Жил он в гордом одиночестве в лесу, на болоте, которое считал своим. Но однажды злобный коротышка - лорд Фаркуад, правитель волшебного королевства, безжалостно согнал на Шреково болото всех сказочных обитателей.
И беспечной жизни зеленого тролля пришел конец. Но лорд Фаркуад пообещал вернуть Шреку болото, если великан добудет ему прекрасную принцессу Фиону, которая томится в неприступной башне, охраняемой огнедышащим драконом...
--Доп. информация:Потрясающий мультфильм занял свое заслуженное место в пятерке самых кассовых мультфильмов всех времен.--Качество: BDRip 720p | Формат: MKV
Видео: 1280x720 at 23.976 fps, x264, ~5416 kbps avg
Аудио:
Russian: 48 kHz, AC3, 3/2 (L,C,R,l,r) + LFE ch, ~640.00 kbps avg |Дубляж, Blu-ray CEE|
Russian: 48 kHz, DTS, 3/2 (L,C,R,l,r) + LFE ch, ~768.00 kbps avg|Многоголосый закадровый, Superbit|
Russian: 48 kHz, AC3, 3/2 (L,C,R,l,r) + LFE ch, ~640.00 kbps avg|Многоголосый закадровый, Карусель #1|
Russian: 48 kHz, AC3, 3/2 (L,C,R,l,r) + LFE ch, ~640.00 kbps avg |Многоголосый закадровый, Киномания/Карусель #2|
Russian: 48 kHz, AC3, 3/2 (L,C,R,l,r) + LFE ch, ~640.00 kbps avg |Одноголосый закадровый, Дмитрий «Гоблин» Пучков|
Russian: 48 kHz, AC3, 3/2 (L,C,R,l,r) + LFE ch, ~640.00 kbps avg |Одноголосый закадровый, П.Гланц|
Russian: 48 kHz, AC3, 3/2 (L,C,R,l,r) + LFE ch, ~640.00 kbps avg |Одноголосый закадровый, А.Гаврилов|
Russian: 48 kHz, AC3, 3/2 (L,C,R,l,r) + LFE ch, ~640.00 kbps avg |Одноголосый закадровый, С.Визгунов|
Russian: 48 kHz, AC3, 2/0 (L,R) ch, ~192.00 kbps avgОдноголосый закадровый, Комментарии создателей - режиссера Эндрю Адамсона и Вики Дженсон, а также продюсера Арона Уорнера, перевод Superbit|
English: 48 kHz, AC3, 3/2 (L,C,R,l,r) + LFE ch, ~640.00 kbps avg |Оригинал|
English: 48 kHz, AC3, 2/0 (L,R) ch, ~192.00 kbps avg |Commentary by director's Andrew Adamson, Vicky Jenson and producer Aron Warner|
Ukrainian: 48 kHz, AC3, 2/0 (L,R) ch, ~320.00 kbps avg|Дубляж, ICTV|
Ukrainian: 48 kHz, AC3, 2/0 (L,R) ch, ~192.00 kbps avg |Многоголосый закадровый, Новый Канал|
Субтитры:English (Blu-ray CEE),Russian (Blu-ray CEE), Russian (SDH) (Kinomania), Ukrainian (Blu-ray CEE)--

MediaInfo

General
UniqueID : 242803046694554909182915278907707251662 (0xB6AA2A734B4F4FAB815671928D845BCE)
Complete name : D:\Фильмы\SHREK_QUADRILOGY_720p_BDRip_HDCLUB\Shrek.2001.720p.BluRay.8xRus.2xUkr.Eng.HDCLUB.mkv
Format : Matroska
File size : 7.68 GiB
Duration : 1h 30mn
Overall bit rate : 12.2 Mbps
Movie name : Shrek (2001) - Release for HDCLUB
Encoded date : UTC 2011-03-23 22:25:50
Writing application : mkvmerge v4.6.0 ('Still Crazy After All These Years') сборка от Mar 10 2011 02:50:32
Writing library : libebml v1.2.0 + libmatroska v1.1.0
Video
ID : 1
Format : AVC
Format/Info : Advanced Video Codec
Format profile : [email protected]
Format settings, CABAC : Yes
Format settings, ReFrames : 8 frames
Codec ID : V_MPEG4/ISO/AVC
Duration : 1h 30mn
Bit rate : 5 416 Kbps
Width : 1 280 pixels
Height : 720 pixels
Display aspect ratio : 16:9
Frame rate : 23.976 fps
Color space : YUV
Chroma subsampling : 4:2:0
Bit depth : 8 bits
Scan type : Progressive
Bits/(Pixel*Frame) : 0.245
Stream size : 3.26 GiB (42%)
Title : Shrek (2001) - Release for HDCLUB
Writing library : x264 core 114 r1913 5fd3dce
Encoding settings : cabac=1 / ref=8 / deblock=1:-3:-3 / analyse=0x3:0x113 / me=tesa / subme=10 / psy=1 / psy_rd=0.90:0.00 / mixed_ref=1 / me_range=16 / chroma_me=1 / trellis=2 / 8x8dct=1 / cqm=0 / deadzone=21,11 / fast_pskip=0 / chroma_qp_offset=-2 / threads=6 / sliced_threads=0 / nr=0 / decimate=1 / interlaced=0 / constrained_intra=0 / bframes=5 / b_pyramid=2 / b_adapt=2 / b_bias=0 / direct=3 / weightb=1 / open_gop=0 / weightp=2 / keyint=250 / keyint_min=23 / scenecut=40 / intra_refresh=0 / rc_lookahead=60 / rc=2pass / mbtree=0 / bitrate=5416 / ratetol=1.0 / qcomp=0.60 / qpmin=10 / qpmax=51 / qpstep=4 / cplxblur=20.0 / qblur=0.5 / vbv_maxrate=50000 / vbv_bufsize=62500 / nal_hrd=none / ip_ratio=1.40 / pb_ratio=1.30 / aq=1:0.80
Language : English
Audio #1
ID : 2
Format : AC-3
Format/Info : Audio Coding 3
Mode extension : CM (complete main)
Codec ID : A_AC3
Duration : 1h 30mn
Bit rate mode : Constant
Bit rate : 640 Kbps
Channel(s) : 6 channels
Channel positions : Front: L C R, Side: L R, LFE
Sampling rate : 48.0 KHz
Bit depth : 16 bits
Compression mode : Lossy
Stream size : 413 MiB (5%)
Title : AC3 5.1ch 640 kbps - Дубляж, Blu-ray
Language : Russian
Audio #2
ID : 3
Format : DTS
Format/Info : Digital Theater Systems
Codec ID : A_DTS
Duration : 1h 30mn
Bit rate mode : Constant
Bit rate : 755 Kbps
Channel(s) : 6 channels
Channel positions : Front: L C R, Side: L R, LFE
Sampling rate : 48.0 KHz
Bit depth : 24 bits
Compression mode : Lossy
Stream size : 486 MiB (6%)
Title : DTS 5.1ch 755 kbps - Многоголосый, Superbit
Language : Russian
Audio #3
ID : 4
Format : AC-3
Format/Info : Audio Coding 3
Mode extension : CM (complete main)
Codec ID : A_AC3
Duration : 1h 30mn
Bit rate mode : Constant
Bit rate : 640 Kbps
Channel(s) : 6 channels
Channel positions : Front: L C R, Side: L R, LFE
Sampling rate : 48.0 KHz
Bit depth : 16 bits
Compression mode : Lossy
Stream size : 413 MiB (5%)
Title : AC3 5.1ch 640 kbps - Многоголосый, Карусель
Language : Russian
Audio #4
ID : 5
Format : AC-3
Format/Info : Audio Coding 3
Mode extension : CM (complete main)
Codec ID : A_AC3
Duration : 1h 30mn
Bit rate mode : Constant
Bit rate : 640 Kbps
Channel(s) : 6 channels
Channel positions : Front: L C R, Side: L R, LFE
Sampling rate : 48.0 KHz
Bit depth : 16 bits
Compression mode : Lossy
Stream size : 413 MiB (5%)
Title : AC3 5.1ch 640 kbps - Многоголосый, Карусель/Киномания
Language : Russian
Audio #5
ID : 6
Format : AC-3
Format/Info : Audio Coding 3
Mode extension : CM (complete main)
Codec ID : A_AC3
Duration : 1h 30mn
Bit rate mode : Constant
Bit rate : 640 Kbps
Channel(s) : 6 channels
Channel positions : Front: L C R, Side: L R, LFE
Sampling rate : 48.0 KHz
Bit depth : 16 bits
Compression mode : Lossy
Stream size : 413 MiB (5%)
Title : AC3 5.1ch 640 kbps - Одноголосый, Д.Пучков (Гобя)
Language : Russian
Audio #6
ID : 7
Format : AC-3
Format/Info : Audio Coding 3
Mode extension : CM (complete main)
Codec ID : A_AC3
Duration : 1h 30mn
Bit rate mode : Constant
Bit rate : 640 Kbps
Channel(s) : 6 channels
Channel positions : Front: L C R, Side: L R, LFE
Sampling rate : 48.0 KHz
Bit depth : 16 bits
Compression mode : Lossy
Stream size : 413 MiB (5%)
Title : AC3 5.1ch 640 kbps - Одноголосый, П.Гланц
Language : Russian
Audio #7
ID : 8
Format : AC-3
Format/Info : Audio Coding 3
Mode extension : CM (complete main)
Codec ID : A_AC3
Duration : 1h 30mn
Bit rate mode : Constant
Bit rate : 640 Kbps
Channel(s) : 6 channels
Channel positions : Front: L C R, Side: L R, LFE
Sampling rate : 48.0 KHz
Bit depth : 16 bits
Compression mode : Lossy
Stream size : 413 MiB (5%)
Title : AC3 5.1ch 640 kbps - Одноголосый, А.Гаврилов
Language : Russian
Audio #8
ID : 9
Format : AC-3
Format/Info : Audio Coding 3
Mode extension : CM (complete main)
Codec ID : A_AC3
Duration : 1h 30mn
Bit rate mode : Constant
Bit rate : 640 Kbps
Channel(s) : 6 channels
Channel positions : Front: L C R, Side: L R, LFE
Sampling rate : 48.0 KHz
Bit depth : 16 bits
Compression mode : Lossy
Stream size : 413 MiB (5%)
Title : AC3 5.1ch 640 kbps - Одноголосый, С.Визгунов
Language : Russian
Audio #9
ID : 10
Format : AC-3
Format/Info : Audio Coding 3
Mode extension : CM (complete main)
Codec ID : A_AC3
Duration : 1h 30mn
Bit rate mode : Constant
Bit rate : 640 Kbps
Channel(s) : 6 channels
Channel positions : Front: L C R, Side: L R, LFE
Sampling rate : 48.0 KHz
Bit depth : 16 bits
Compression mode : Lossy
Stream size : 413 MiB (5%)
Title : AC3 5.1ch 640 kbps
Language : English
Audio #10
ID : 11
Format : AC-3
Format/Info : Audio Coding 3
Mode extension : CM (complete main)
Codec ID : A_AC3
Duration : 1h 30mn
Bit rate mode : Constant
Bit rate : 320 Kbps
Channel(s) : 2 channels
Channel positions : Front: L R
Sampling rate : 48.0 KHz
Bit depth : 16 bits
Compression mode : Lossy
Stream size : 206 MiB (3%)
Title : AC3 2.0ch 320 kbps - Дубляж, 1+1
Language : Ukrainian
Audio #11
ID : 12
Format : AC-3
Format/Info : Audio Coding 3
Mode extension : CM (complete main)
Codec ID : A_AC3
Duration : 1h 30mn
Bit rate mode : Constant
Bit rate : 192 Kbps
Channel(s) : 2 channels
Channel positions : Front: L R
Sampling rate : 48.0 KHz
Bit depth : 16 bits
Compression mode : Lossy
Stream size : 124 MiB (2%)
Title : AC3 2.0ch 192 kbps - Многоголосый, Новый Канал
Language : Ukrainian
Audio #12
ID : 13
Format : AC-3
Format/Info : Audio Coding 3
Mode extension : CM (complete main)
Codec ID : A_AC3
Duration : 1h 30mn
Bit rate mode : Constant
Bit rate : 192 Kbps
Channel(s) : 2 channels
Channel positions : Front: L R
Sampling rate : 48.0 KHz
Bit depth : 16 bits
Compression mode : Lossy
Stream size : 124 MiB (2%)
Title : AC3 2.0ch 192 kbps - Commentary
Language : Russian
Audio #13
ID : 14
Format : AC-3
Format/Info : Audio Coding 3
Mode extension : CM (complete main)
Codec ID : A_AC3
Duration : 1h 30mn
Bit rate mode : Constant
Bit rate : 192 Kbps
Channel(s) : 2 channels
Channel positions : Front: L R
Sampling rate : 48.0 KHz
Bit depth : 16 bits
Compression mode : Lossy
Stream size : 124 MiB (2%)
Title : AC3 2.0ch 192 kbps - Commentary
Language : English
Text #1
ID : 15
Format : UTF-8
Codec ID : S_TEXT/UTF8
Codec ID/Info : UTF-8 Plain Text
Language : Russian
Text #2
ID : 16
Format : UTF-8
Codec ID : S_TEXT/UTF8
Codec ID/Info : UTF-8 Plain Text
Title : Kinomania (SDH)
Language : Russian
Text #3
ID : 17
Format : UTF-8
Codec ID : S_TEXT/UTF8
Codec ID/Info : UTF-8 Plain Text
Language : Ukrainian
Text #4
ID : 18
Format : UTF-8
Codec ID : S_TEXT/UTF8
Codec ID/Info : UTF-8 Plain Text
Language : English
Menu
00:00:00.000 : en:1. Once Upon a Time (Main Title)
00:04:58.798 : en:2. A Flyinf, Talking Donkey
00:11:45.121 : en:3. What Are You Doing In My Swamp?
00:16:00.793 : en:4. Lord Farquaad
00:20:13.379 : en:5. The Kingdom of Duloc
00:26:21.455 : en:6. Ogres Are Like Onions
00:31:42.859 : en:7. The Dragon's Keep
00:35:15.280 : en:8. Rescuing the Princess
00:40:26.007 : en:9. Remove Your Helmet
00:45:03.159 : en:10. Campfire
00:49:18.247 : en:11. Merry Men
00:55:29.701 : en:12. Weedrat Dinner
01:00:56.278 : en:13. You Ate the Princess!
01:05:35.348 : en:14. The Proposal
01:09:16.986 : en:15. Wedding Preparation
01:11:34.707 : en:16. That's What Friends Are For
01:14:53.447 : en:17. The Wedding
01:17:35.818 : en:18. Love's True Form
01:20:55.142 : en:19. I'm a Believer
01:23:04.354 : en:20. End Credits

Скриншоты


Шрек 2

--Год выпуска:2004--Страна: США--Жанр: Фэнтези, Комедия, Приключения, Семейный, Мультфильм--Продолжительность: 01:32:23--Перевод:--Профессиональный (Полное дублирование)|Blu-ray CEE|--Профессиональный (Многоголосый закадровый)|Киномания|--Профессиональный (Двухголосый закадровый) |Tycoon-Studio|--Профессиональный (Двухголосый закадровый)|П.Гланц, И.Королёва|--Авторский (Одноголосый закадровый) |А.Гаврилов|--Авторский (Одноголосый закадровый) |Дмитрий «Гоблин» Пучков, кот говорит с грузинским акцентом|--Авторский (Одноголосый закадровый)|Дмитрий «Гоблин» Пучков, вставки эстрадных песен|--Режиссер:Эндрю Адамсон / Andrew Adamson, Келли Эсбёри / Kelly Asbury, Конрад Вернон / Conrad Vernon--Сценарий:Уильям Стейг / William Steig, Эндрю Адамсон / Andrew Adamson, Джо Стиллман / Joe Stillman, Дж. Дэвид Стем / J. David Stem, Дэвид Н. Уайсс / David N. Weiss--Продюсер:Джеффри Катценберг / Jeffrey Katzenberg, Дэвид Липман / David Lipman, Арон Уорнер / Aron Warner, Джон Х. Уильямс / John H. Williams--Композитор: Джим Боджиос / Jim Bogios, Дэвид Боуи / David Bowie, Кэтлин Бреннан / Kathleen Brennan, Кристофер Каррабба / Christopher Carrabba, Ник Кейв / Nick Cave--Художник:Гийом Аретос / Guillaume Aretos, Айзис Массенден / Isis Mussenden, Стив Пилчер / Steve Pilcher--Роли озвучивали:Майк Майерс (Shrek, озвучка,)Эдди Мёрфи (Donkey, озвучка,)Кэмерон Диаз (Princess Fiona, озвучка,)Джули Эндрюс (Queen, озвучка)Антонио Бандерас (Puss In Boots, озвучка)Джон Клиз (King, озвучка)Руперт Эверет (Prince Charming, озвучка)Дженнифер Сoндерс (Fairy Godmother, озвучка)Арон Уорнер (Wolf, озвучка)Келли Эсбёри (Page, Elf, Nobleman, Nobleman's Son, озвучка) Коуди Камерон (Pinocchio, Three Pigs, озвучка)Конрад Вернон (Gingerbread Man, Cedric, Announcer, Muffin Man, Mongo, озвучка)--Бюджет:$150 000 000
Маркетинг:$50 000 000
Сборы в США:$441 226 247
Сборы в России:$5 750 000
Сборы в мире:$920 665 658
Мировая премьера: 15 мая 2004
Премьера (РФ): 19 августа 2004, «UIP»
Релиз на Blu-ray: 30 ноября 2010, «Юниверсал Пикчерс Рус»--Описание:Шрэк и Фиона возвращаются после медового месяца и находят письмо от родителей Фионы с приглашением на ужин. Однако те не подозревают, что их дочь тоже стала троллем! Вместе с Осликом счастливая пара отправляется в путешествие, полное неожиданностей, и попадает в круговорот событий, во время которых приобретает множество друзей…--Качество: BDRip 720p | Формат: MKV
Видео: 1280x720 at 23.976 fps, x264, ~5241 kbps avg
Аудио:
Russian: 48 kHz, AC3, 3/2 (L,C,R,l,r) + LFE ch, ~640.00 kbps avg |Дубляж, Blu-ray CEE|
Russian: 48 kHz, AC3, 3/2 (L,C,R,l,r) + LFE ch, ~640.00 kbps avg |Одноголосый закадровый, Дмитрий «Гоблин» Пучков, финальная версия|
Russian: 48 kHz, AC3, 3/2 (L,C,R,l,r) + LFE ch, ~640.00 kbps avg |Двухголосый закадровый, Tycoon-Studio|
Russian: 48 kHz, AC3, 3/2 (L,C,R,l,r) + LFE ch, ~640.00 kbps avg|Двухголосый закадровый, П.Гланц, И.Королёва|
Russian: 48 kHz, AC3, 3/2 (L,C,R,l,r) + LFE ch, ~640.00 kbps avg |Одноголосый закадровый, А.Гаврилов|
Russian: 48 kHz, AC3, 3/2 (L,C,R,l,r) + LFE ch, ~448.00 kbps avg |Многоголосый закадровый, Киномания|
Russian: 48 kHz, AC3, 3/2 (L,C,R,l,r) + LFE ch, ~448.00 kbps avg |Одноголосый закадровый, Дмитрий «Гоблин» Пучков, кот говорит с грузинским акцентом|
Russian: 48 kHz, AC3, 3/2 (L,C,R,l,r) + LFE ch, ~448.00 kbps avg |Одноголосый закадровый, Дмитрий «Гоблин» Пучков, вставки эстрадных песен|
English: 48 kHz, AC3, 3/2 (L,C,R,l,r) + LFE ch, ~640.00 kbps avg |Оригинал|
English: 48 kHz, AC3, 2/0 (L,R) ch, ~192.00 kbps avg|Commentary by director's Andrew Adamson, Kelly Asbury and Conrad Vernon|
English: 48 kHz, AC3, 2/0 (L,R) ch, ~192.00 kbps avg|Commentary by editor Michael Andrews and producer Aron Warner|
Ukrainian: 48 kHz, AC3, 2/0 (L,R) ch, ~192.00 kbps avg |Многоголосый закадровый, Новый Канал|
Субтитры: English (Blu-ray CEE), Russian (Blu-ray CEE), Ukrainian (Blu-ray CEE)--

МИ

General
UniqueID : 181930345105963216057087406800625194940 (0x88DE828BA3AE5FA78854212DCD7BD7BC)
Complete name : D:\Фильмы\SHREK_QUADRILOGY_720p_BDRip_HDCLUB\Shrek.2.2004.720p.BluRay.8xRus.Ukr.Eng.HDCLUB.mkv
Format : Matroska
File size : 7.10 GiB
Duration : 1h 32mn
Overall bit rate : 11.0 Mbps
Movie name : Shrek 2 (2004) - Release for HDCLUB
Encoded date : UTC 2011-03-24 14:36:37
Writing application : mkvmerge v4.6.0 ('Still Crazy After All These Years') сборка от Mar 10 2011 02:50:32
Writing library : libebml v1.2.0 + libmatroska v1.1.0
Video
ID : 1
Format : AVC
Format/Info : Advanced Video Codec
Format profile : [email protected]
Format settings, CABAC : Yes
Format settings, ReFrames : 8 frames
Codec ID : V_MPEG4/ISO/AVC
Duration : 1h 32mn
Bit rate : 5 241 Kbps
Width : 1 280 pixels
Height : 720 pixels
Display aspect ratio : 16:9
Frame rate : 23.976 fps
Color space : YUV
Chroma subsampling : 4:2:0
Bit depth : 8 bits
Scan type : Progressive
Bits/(Pixel*Frame) : 0.237
Stream size : 3.24 GiB (46%)
Title : Shrek 2 (2004) - Release for HDCLUB
Writing library : x264 core 114 r1913 5fd3dce
Encoding settings : cabac=1 / ref=8 / deblock=1:-3:-3 / analyse=0x3:0x113 / me=tesa / subme=10 / psy=1 / psy_rd=0.90:0.00 / mixed_ref=1 / me_range=16 / chroma_me=1 / trellis=2 / 8x8dct=1 / cqm=0 / deadzone=21,11 / fast_pskip=0 / chroma_qp_offset=-2 / threads=6 / sliced_threads=0 / nr=0 / decimate=1 / interlaced=0 / constrained_intra=0 / bframes=5 / b_pyramid=2 / b_adapt=2 / b_bias=0 / direct=3 / weightb=1 / open_gop=0 / weightp=2 / keyint=250 / keyint_min=23 / scenecut=40 / intra_refresh=0 / rc_lookahead=60 / rc=2pass / mbtree=0 / bitrate=5241 / ratetol=1.0 / qcomp=0.60 / qpmin=10 / qpmax=51 / qpstep=4 / cplxblur=20.0 / qblur=0.5 / vbv_maxrate=50000 / vbv_bufsize=62500 / nal_hrd=none / ip_ratio=1.40 / pb_ratio=1.30 / aq=1:0.80
Language : English
Audio #1
ID : 2
Format : AC-3
Format/Info : Audio Coding 3
Mode extension : CM (complete main)
Codec ID : A_AC3
Duration : 1h 32mn
Bit rate mode : Constant
Bit rate : 640 Kbps
Channel(s) : 6 channels
Channel positions : Front: L C R, Side: L R, LFE
Sampling rate : 48.0 KHz
Bit depth : 16 bits
Compression mode : Lossy
Stream size : 423 MiB (6%)
Title : AC3 5.1ch 640 kbps - Дубляж, Blu-ray
Language : Russian
Audio #2
ID : 3
Format : AC-3
Format/Info : Audio Coding 3
Mode extension : CM (complete main)
Codec ID : A_AC3
Duration : 1h 32mn
Bit rate mode : Constant
Bit rate : 640 Kbps
Channel(s) : 6 channels
Channel positions : Front: L C R, Side: L R, LFE
Sampling rate : 48.0 KHz
Bit depth : 16 bits
Compression mode : Lossy
Stream size : 423 MiB (6%)
Title : AC3 5.1ch 640 kbps - Одноголосый, Д.Пучков (Гобя)
Language : Russian
Audio #3
ID : 4
Format : AC-3
Format/Info : Audio Coding 3
Mode extension : CM (complete main)
Codec ID : A_AC3
Duration : 1h 32mn
Bit rate mode : Constant
Bit rate : 640 Kbps
Channel(s) : 6 channels
Channel positions : Front: L C R, Side: L R, LFE
Sampling rate : 48.0 KHz
Bit depth : 16 bits
Compression mode : Lossy
Stream size : 423 MiB (6%)
Title : AC3 5.1ch 640 kbps - Двухголосый, Tycoon
Language : Russian
Audio #4
ID : 5
Format : AC-3
Format/Info : Audio Coding 3
Mode extension : CM (complete main)
Codec ID : A_AC3
Duration : 1h 32mn
Bit rate mode : Constant
Bit rate : 640 Kbps
Channel(s) : 6 channels
Channel positions : Front: L C R, Side: L R, LFE
Sampling rate : 48.0 KHz
Bit depth : 16 bits
Compression mode : Lossy
Stream size : 423 MiB (6%)
Title : AC3 5.1ch 640 kbps - Двухголосый, П.Гланц, И.Королева
Language : Russian
Audio #5
ID : 6
Format : AC-3
Format/Info : Audio Coding 3
Mode extension : CM (complete main)
Codec ID : A_AC3
Duration : 1h 32mn
Bit rate mode : Constant
Bit rate : 640 Kbps
Channel(s) : 6 channels
Channel positions : Front: L C R, Side: L R, LFE
Sampling rate : 48.0 KHz
Bit depth : 16 bits
Compression mode : Lossy
Stream size : 423 MiB (6%)
Title : AC3 5.1ch 640 kbps - Одноголосый, А.Гаврилов
Language : Russian
Audio #6
ID : 7
Format : AC-3
Format/Info : Audio Coding 3
Mode extension : CM (complete main)
Codec ID : A_AC3
Duration : 1h 32mn
Bit rate mode : Constant
Bit rate : 640 Kbps
Channel(s) : 6 channels
Channel positions : Front: L C R, Side: L R, LFE
Sampling rate : 48.0 KHz
Bit depth : 16 bits
Compression mode : Lossy
Stream size : 423 MiB (6%)
Title : AC3 5.1ch 640 kbps
Language : English
Audio #7
ID : 8
Format : AC-3
Format/Info : Audio Coding 3
Mode extension : CM (complete main)
Codec ID : A_AC3
Duration : 1h 32mn
Bit rate mode : Constant
Bit rate : 448 Kbps
Channel(s) : 6 channels
Channel positions : Front: L C R, Side: L R, LFE
Sampling rate : 48.0 KHz
Bit depth : 16 bits
Compression mode : Lossy
Stream size : 296 MiB (4%)
Title : AC3 5.1ch 448 kbps - Многоголосый, Киномания
Language : Russian
Audio #8
ID : 9
Format : AC-3
Format/Info : Audio Coding 3
Mode extension : CM (complete main)
Codec ID : A_AC3
Duration : 1h 32mn
Bit rate mode : Constant
Bit rate : 448 Kbps
Channel(s) : 6 channels
Channel positions : Front: L C R, Side: L R, LFE
Sampling rate : 48.0 KHz
Bit depth : 16 bits
Compression mode : Lossy
Stream size : 296 MiB (4%)
Title : AC3 5.1ch 448 kbps - Одноголосый, Д.Пучков (Гобя) #2
Language : Russian
Audio #9
ID : 10
Format : AC-3
Format/Info : Audio Coding 3
Mode extension : CM (complete main)
Codec ID : A_AC3
Duration : 1h 32mn
Bit rate mode : Constant
Bit rate : 448 Kbps
Channel(s) : 6 channels
Channel positions : Front: L C R, Side: L R, LFE
Sampling rate : 48.0 KHz
Bit depth : 16 bits
Compression mode : Lossy
Stream size : 296 MiB (4%)
Title : AC3 5.1ch 448 kbps - Одноголосый, Д.Пучков (Гобя) #3
Language : Russian
Audio #10
ID : 11
Format : AC-3
Format/Info : Audio Coding 3
Mode extension : CM (complete main)
Codec ID : A_AC3
Duration : 1h 32mn
Bit rate mode : Constant
Bit rate : 192 Kbps
Channel(s) : 2 channels
Channel positions : Front: L R
Sampling rate : 48.0 KHz
Bit depth : 16 bits
Compression mode : Lossy
Stream size : 127 MiB (2%)
Title : AC3 2.0ch 192 kbps - Многоголосый, Новый Канал
Language : Ukrainian
Audio #11
ID : 12
Format : AC-3
Format/Info : Audio Coding 3
Mode extension : CM (complete main)
Codec ID : A_AC3
Duration : 1h 32mn
Bit rate mode : Constant
Bit rate : 192 Kbps
Channel(s) : 2 channels
Channel positions : Front: L R
Sampling rate : 48.0 KHz
Bit depth : 16 bits
Compression mode : Lossy
Stream size : 127 MiB (2%)
Title : AC3 2.0ch 192 kbps - Commentary
Language : English
Audio #12
ID : 13
Format : AC-3
Format/Info : Audio Coding 3
Mode extension : CM (complete main)
Codec ID : A_AC3
Duration : 1h 32mn
Bit rate mode : Constant
Bit rate : 192 Kbps
Channel(s) : 2 channels
Channel positions : Front: L R
Sampling rate : 48.0 KHz
Bit depth : 16 bits
Compression mode : Lossy
Stream size : 127 MiB (2%)
Title : AC3 2.0ch 192 kbps - Commentary
Language : English
Text #1
ID : 14
Format : UTF-8
Codec ID : S_TEXT/UTF8
Codec ID/Info : UTF-8 Plain Text
Language : Russian
Text #2
ID : 15
Format : UTF-8
Codec ID : S_TEXT/UTF8
Codec ID/Info : UTF-8 Plain Text
Language : Ukrainian
Text #3
ID : 16
Format : UTF-8
Codec ID : S_TEXT/UTF8
Codec ID/Info : UTF-8 Plain Text
Language : English
Menu
00:00:00.000 : en:Chapter 1
00:02:32.778 : en:Chapter 2
00:08:41.980 : en:Chapter 3
00:11:09.502 : en:Chapter 4
00:18:54.425 : en:Chapter 5
00:27:13.507 : en:Chapter 6
00:30:23.613 : en:Chapter 7
00:32:38.498 : en:Chapter 8
00:40:46.277 : en:Chapter 9
00:48:07.843 : en:Chapter 10
00:52:30.606 : en:Chapter 11
00:56:22.421 : en:Chapter 12
01:00:45.308 : en:Chapter 13
01:03:37.731 : en:Chapter 14
01:04:58.978 : en:Chapter 15
01:07:23.498 : en:Chapter 16
01:10:50.746 : en:Chapter 17
01:14:20.373 : en:Chapter 18
01:18:42.259 : en:Chapter 19
01:22:09.174 : en:Chapter 20

Скриншоты


Шрек Третий

Год выпуска:2007
Страна:США
Жанр:Фэнтези, Комедия, Приключения, Семейный, Мультфильм
Продолжительность: 01:32:46
Перевод:
Профессиональный (Полное дублирование)|Blu-ray CEE|
Авторский (Двухголосый закадровый)|П.Гланц, И.Королёва|
Авторский (Одноголосый закадровый)|А.Гаврилов|
Авторский (Одноголосый закадровый) |В.Королёв|
Режиссер: Крис Миллер / Chris Miller, Раман <~~> / Raman Hui
Сценарий: Уильям Стейг / William Steig, Джош Клауснер / Josh Klausner, Коуди Камерон / Cody Cameron, Роберт Портер / Robert Porter, Дэвид П. Смит / David P. Smith
Продюсер:Эндрю Адамсон / Andrew Adamson, Дэниз Нолан Каскино / Denise Nolan Cascino, Арон Уорнер / Aron Warner, Джон Х. Уильямс / John H. Williams
Композитор: Гарри Грегсон-Уильямс / Harry Gregson-Williams
Художник:Гийом Аретос / Guillaume Aretos, Айзис Массенден / Isis Mussenden, Питер Заслав / Peter Zaslav
Роли озвучивали:Майк Майерс (Shrek, озвучка)Эдди Мёрфи (Donkey, озвучка)Кэмерон Диаз (Princess Fiona, озвучка)Антонио Бандерас (Puss in Boots, озвучка)Джули Эндрюс (Queen, озвучка)Джон Клиз (King, озвучка)Руперт Эверет (Prince Charming, озвучка)Эрик Айдл (Merlin, озвучка)Джастин Тимберлэйк (Artie, озвучка)Сьюзан Блэйксли (Evil Queen, озвучка)Коуди Камерон (Pinocchio / Three Pigs, озвучка)Ларри Кинг (Doris, озвучка)
Бюджет: $160 000 000
Сборы в США:$322 719 944
Сборы в России: $23 387 850
Сборы в мире:$798 958 165
Мировая премьера:6 мая 2007
Премьера (РФ):17 мая 2007, «UPI»
Релиз на Blu-ray: 7 апреля 2009, «Юниверсал Пикчерс Рус»
Описание: Королем может быть не каждый — особенно если вы не очень симпатичный великан. Когда Шрэк женился на принцессе Фионе, он меньше всего на свете хотел управлять Далекой-Далекой страной. Такой он невластолюбивый. Однако отец Фионы, король Гарольд, внезапно умирает, и корону должен унаследовать именно Шрэк. Как-никак, он все-таки муж наследницы.
Однако Шрэк наотрез отказывается от бремени власти, и решает отправиться вместе со своими старыми друзьями Ослом и Котом в сапогах на поиски кандидата на трон. Если Шрэк не найдет себе подходящей замены, ему придется управлять сказочной страной самому… и это надолго. Похоже, что король Артур — тот, кто им нужен.
Однако в отсутствие великана его старый враг принц по имени Чарминг замышляет всякие пакости, для чего и возвращается в сказочную страну. Шрэку придется очень постараться, чтобы спасти страну от происков врагов и от возможного переворота

Качество: BDRip 720p | Формат: MKV
Видео: 1280x720 at 23.976 fps, x264, ~5197 kbps avg
Аудио:
Russian: 48 kHz, AC3, 3/2 (L,C,R,l,r) + LFE ch, ~640.00 kbps avg|Дубляж, Blu-ray CEE|
Russian: 48 kHz, AC3, 3/2 (L,C,R,l,r) + LFE ch, ~640.00 kbps avg|Двухголосый закадровый, П.Гланц, И.Королёва|
Russian: 48 kHz, AC3, 3/2 (L,C,R,l,r) + LFE ch, ~640.00 kbps avg|Одноголосый закадровый, А.Гаврилов|
Russian: 48 kHz, AC3, 3/2 (L,C,R,l,r) + LFE ch, ~640.00 kbps avg|Одноголосый закадровый, В.Королёв|
English: 48 kHz, AC3, 3/2 (L,C,R,l,r) + LFE ch, ~640.00 kbps avg |Оригинал|
Ukrainian: 48 kHz, AC3, 3/2 (L,C,R,l,r) + LFE ch, ~640.00 kbps avgДубляж, Blu-ray CEE|

МИ

General
UniqueID : 180563628130130536776633918133431895746 (0x87D74A32300679FAB85DA889200306C2)
Complete name : D:\Фильмы\SHREK_QUADRILOGY_720p_BDRip_HDCLUB\Shrek.the.Third.2007.720p.BluRay.4xRus.Ukr.Eng.HDCLUB.mkv
Format : Matroska
File size : 5.86 GiB
Duration : 1h 32mn
Overall bit rate : 9 034 Kbps
Movie name : Shrek the Third (2007) - Release for HDCLUB
Encoded date : UTC 2011-03-24 15:52:02
Writing application : mkvmerge v4.6.0 ('Still Crazy After All These Years') сборка от Mar 10 2011 02:50:32
Writing library : libebml v1.2.0 + libmatroska v1.1.0
Video
ID : 1
Format : AVC
Format/Info : Advanced Video Codec
Format profile : [email protected]
Format settings, CABAC : Yes
Format settings, ReFrames : 8 frames
Codec ID : V_MPEG4/ISO/AVC
Duration : 1h 32mn
Bit rate : 5 197 Kbps
Width : 1 280 pixels
Height : 720 pixels
Display aspect ratio : 16:9
Frame rate : 23.976 fps
Color space : YUV
Chroma subsampling : 4:2:0
Bit depth : 8 bits
Scan type : Progressive
Bits/(Pixel*Frame) : 0.235
Stream size : 3.25 GiB (56%)
Title : Shrek the Third (2007) - Release for HDCLUB
Writing library : x264 core 114 r1913 5fd3dce
Encoding settings : cabac=1 / ref=8 / deblock=1:-3:-3 / analyse=0x3:0x113 / me=tesa / subme=10 / psy=1 / psy_rd=0.90:0.00 / mixed_ref=1 / me_range=16 / chroma_me=1 / trellis=2 / 8x8dct=1 / cqm=0 / deadzone=21,11 / fast_pskip=0 / chroma_qp_offset=-2 / threads=6 / sliced_threads=0 / nr=0 / decimate=1 / interlaced=0 / constrained_intra=0 / bframes=5 / b_pyramid=2 / b_adapt=2 / b_bias=0 / direct=3 / weightb=1 / open_gop=0 / weightp=2 / keyint=250 / keyint_min=23 / scenecut=40 / intra_refresh=0 / rc_lookahead=60 / rc=2pass / mbtree=0 / bitrate=5197 / ratetol=1.0 / qcomp=0.60 / qpmin=10 / qpmax=51 / qpstep=4 / cplxblur=20.0 / qblur=0.5 / vbv_maxrate=50000 / vbv_bufsize=62500 / nal_hrd=none / ip_ratio=1.40 / pb_ratio=1.30 / aq=1:0.80
Language : English
Audio #1
ID : 2
Format : AC-3
Format/Info : Audio Coding 3
Mode extension : CM (complete main)
Codec ID : A_AC3
Duration : 1h 32mn
Bit rate mode : Constant
Bit rate : 640 Kbps
Channel(s) : 6 channels
Channel positions : Front: L C R, Side: L R, LFE
Sampling rate : 48.0 KHz
Bit depth : 16 bits
Compression mode : Lossy
Stream size : 425 MiB (7%)
Title : AC3 5.1ch 640 kbps - Дубляж, Blu-ray
Language : Russian
Audio #2
ID : 3
Format : AC-3
Format/Info : Audio Coding 3
Mode extension : CM (complete main)
Codec ID : A_AC3
Duration : 1h 32mn
Bit rate mode : Constant
Bit rate : 640 Kbps
Channel(s) : 6 channels
Channel positions : Front: L C R, Side: L R, LFE
Sampling rate : 48.0 KHz
Bit depth : 16 bits
Compression mode : Lossy
Stream size : 425 MiB (7%)
Title : AC3 5.1ch 640 kbps - Дубляж, Blu-ray
Language : Ukrainian
Audio #3
ID : 4
Format : AC-3
Format/Info : Audio Coding 3
Mode extension : CM (complete main)
Codec ID : A_AC3
Duration : 1h 32mn
Bit rate mode : Constant
Bit rate : 640 Kbps
Channel(s) : 6 channels
Channel positions : Front: L C R, Side: L R, LFE
Sampling rate : 48.0 KHz
Bit depth : 16 bits
Compression mode : Lossy
Stream size : 425 MiB (7%)
Title : AC3 5.1ch 640 kbps - Двухголосый, П.Гланц, И.Королева
Language : Russian
Audio #4
ID : 5
Format : AC-3
Format/Info : Audio Coding 3
Mode extension : CM (complete main)
Codec ID : A_AC3
Duration : 1h 32mn
Bit rate mode : Constant
Bit rate : 640 Kbps
Channel(s) : 6 channels
Channel positions : Front: L C R, Side: L R, LFE
Sampling rate : 48.0 KHz
Bit depth : 16 bits
Compression mode : Lossy
Stream size : 425 MiB (7%)
Title : AC3 5.1ch 640 kbps - Одноголосый, А.Гаврилов
Language : Russian
Audio #5
ID : 6
Format : AC-3
Format/Info : Audio Coding 3
Mode extension : CM (complete main)
Codec ID : A_AC3
Duration : 1h 32mn
Bit rate mode : Constant
Bit rate : 640 Kbps
Channel(s) : 6 channels
Channel positions : Front: L C R, Side: L R, LFE
Sampling rate : 48.0 KHz
Bit depth : 16 bits
Compression mode : Lossy
Stream size : 425 MiB (7%)
Title : AC3 5.1ch 640 kbps - Одноголосый, В.Королёв
Language : Russian
Audio #6
ID : 7
Format : AC-3
Format/Info : Audio Coding 3
Mode extension : CM (complete main)
Codec ID : A_AC3
Duration : 1h 32mn
Bit rate mode : Constant
Bit rate : 640 Kbps
Channel(s) : 6 channels
Channel positions : Front: L C R, Side: L R, LFE
Sampling rate : 48.0 KHz
Bit depth : 16 bits
Compression mode : Lossy
Stream size : 425 MiB (7%)
Title : AC3 5.1ch 640 kbps
Language : English
Text #1
ID : 8
Format : UTF-8
Codec ID : S_TEXT/UTF8
Codec ID/Info : UTF-8 Plain Text
Language : Russian
Text #2
ID : 9
Format : UTF-8
Codec ID : S_TEXT/UTF8
Codec ID/Info : UTF-8 Plain Text
Language : Ukrainian
Text #3
ID : 10
Format : UTF-8
Codec ID : S_TEXT/UTF8
Codec ID/Info : UTF-8 Plain Text
Language : English
Menu
00:00:00.000 : en:1. Dinner Theater
00:03:23.912 : en:2. Far Far Away
00:09:35.033 : en:3. The King Croaks
00:13:51.372 : en:4. Fairy Tale Villains Unite
00:17:31.342 : en:5. Shrek's Nightmare
00:25:15.889 : en:6. Find Arthur
00:32:16.101 : en:7. The Party's Over
00:38:35.730 : en:8. King Artic
00:41:17.016 : en:9. Mr. Merlin
00:49:15.578 : en:10. Rapunzel's Betrayal
00:51:55.237 : en:11. Magic Trip
00:56:51.158 : en:12. Go Go Away
00:59:24.311 : en:13. Captured
01:03:30.265 : en:14. The Queen Rocks
01:07:08.274 : en:15. Team Awesome
01:10:31.185 : en:16. Royal Showdown
01:19:44.279 : en:17. Happily Ever After, After All
01:22:24.773 : en:18. End Credits

Скриншоты


Шрек навсегда

-- --Год выпуска: 2010--Страна: США--Жанр: Фэнтези, Комедия, Приключения, Семейный, Мультфильм--Продолжительность: 01:33:10--Перевод:Профессиональный (Полное дублирование) |Blu-ray|--Режиссер: Майк Митчел / Mike Mitchell--Сценарий:Джош Клауснер / Josh Klausner, Даррен Лемке / Darren Lemke--Продюсер:Эндрю Адамсон / Andrew Adamson, Тереза Чэн / Teresa Cheng, Джина Шэй / Gina
Shay, Арон Уорнер / Aron Warner, Джон Х. Уильямс / John H. Williams
--Композитор:Гарри Грегсон-Уильямс / Harry Gregson-Williams--Художник: Макс Боас / Max Boas, Майкл Эрнандез / Michael Hernandez--Роли озвучивали:Майк Майерс (Shrek, озвучка) Эдди Мёрфи (Donkey, озвучка) Кэмерон Диаз (Princess Fiona, озвучка,)Антонио Бандерас (Puss in Boots, озвучка)Джули Эндрюс (Queen, озвучка)Джон Хэмм (Brogan, озвучка)Джон Клиз (King Harold, озвучка)Крэйг Робинсон (Cookie, озвучка)Уолт Дорн (Rumpelstiltskin / Priest / Krekraw Ogre, озвучка)Джейн Линч (Gretched, озвучка)Лэйк Белл (Patrol Witch / Wagon Witch #2, озвучка)Кэти Гриффин (Dancing Witch / Wagon Witch #1, озвучка)--Бюджет:$165 000 000
Сборы в США:$238 395 990
Сборы в России:$51 395 417
Сборы в мире:$737 913 938
Мировая премьера: 21 апреля 2010
Премьера (РФ): 20 мая 2010, «Централ Партнершип»
Релиз на Blu-ray:30 ноября 2010, «Юниверсал Пикчерс Рус»--Описание: Чем бы еще заняться огру, который уже сразился со злым драконом, спас прекрасную принцессу и уберег от беды королевство родственников по линии жены? Что ж, если вы Шрэк, то, сами того не заметив, вы вдруг сядете дома и станете наслаждаться покоем в кругу семьи. Вместо того чтобы как раньше пугать деревенских жителей, теперь Шрэк, хоть и с неохотой, но соглашается оставлять автографы на их вилах. А куда же подевался знаменитый рык этого огра?
Под грузом воспоминаний о днях, когда он чувствовал себя «настоящим огром», Шрэк поддается на уговоры сладкоголосого Румпельштильцхена и заключает с ним договор. Сразу после этого Шрэк оказывается в альтернативной реальности Тридевятого королевства, где все поставлено с ног на голову: на огров здесь охотятся, Румпельштильцхен восседает на троне, а Шрэк и Фиона даже не знакомы. И теперь только сам Шрэк может исправить все, что он натворил, чтобы спасти друзей, восстановить привычный ему порядок вещей и вернуть себе свою единственную Истинную Любовь.
--Качество: BDRip 720p | Формат: MKV | Рип: ESiR
Видео:1280x544 at 23.976 fps, x264, ~4660 kbps avg
Аудио:
Russian: 48 kHz, AC3, 3/2 (L,C,R,l,r) + LFE ch, ~640.00 kbps avg |Дубляж, Blu-ray|
Ukrainian: 48 kHz, AC3, 3/2 (L,C,R,l,r) + LFE ch, ~640.00 kbps avg|Дубляж, Blu-ray|
English: 48 kHz, AC3, 3/2 (L,C,R,l,r) + LFE ch, ~640.00 kbps avg |Оригинал|
English: 48 kHz, AC3, 2/0 (L,R) ch, ~224.00 kbps avg |Filmmakers Commentary|
Субтитры:English (Blu-ray), English (Commentary), Russian (Blu-ray), Ukrainian (Blu-ray)--

МИ

General
UniqueID : 216803419281743666568895480838617267536 (0xA31AD1D96F079E0E86728B424A137D50)
Complete name : D:\Фильмы\SHREK_QUADRILOGY_720p_BDRip_HDCLUB\Shrek.Forever.After.2010.720p.BluRay.Rus.Ukr.Eng.HDCLUB.mkv
Format : Matroska
File size : 4.43 GiB
Duration : 1h 33mn
Overall bit rate : 6 807 Kbps
Movie name : Shrek Forever After (2010) - Release for HDCLUB
Encoded date : UTC 2011-03-24 17:39:18
Writing application : mkvmerge v4.6.0 ('Still Crazy After All These Years') сборка от Mar 10 2011 02:50:32
Writing library : libebml v1.2.0 + libmatroska v1.1.0
Video
ID : 1
Format : AVC
Format/Info : Advanced Video Codec
Format profile : [email protected]
Format settings, CABAC : Yes
Format settings, ReFrames : 9 frames
Codec ID : V_MPEG4/ISO/AVC
Duration : 1h 33mn
Bit rate : 4 660 Kbps
Width : 1 280 pixels
Height : 544 pixels
Display aspect ratio : 2.35:1
Frame rate : 23.976 fps
Color space : YUV
Chroma subsampling : 4:2:0
Bit depth : 8 bits
Scan type : Progressive
Bits/(Pixel*Frame) : 0.279
Stream size : 2.95 GiB (67%)
Title : Shrek Forever After (2010) - Release for HDCLUB
Writing library : x264 core 108 r1766+332 1be361f
Encoding settings : cabac=1 / ref=10 / deblock=1:-3:-3 / analyse=0x3:0x133 / me=tesa / subme=10 / psy=1 / fade_compensate=0.00 / psy_rd=0.90:0.00 / mixed_ref=1 / me_range=24 / chroma_me=1 / trellis=2 / 8x8dct=1 / cqm=0 / deadzone=21,11 / fast_pskip=0 / chroma_qp_offset=-2 / threads=6 / sliced_threads=0 / nr=0 / decimate=0 / interlaced=0 / constrained_intra=0 / fgo=0 / bframes=6 / b_pyramid=1 / b_adapt=2 / b_bias=0 / direct=3 / weightb=1 / open_gop=0 / weightp=2 / keyint=250 / keyint_min=23 / scenecut=40 / intra_refresh=0 / rc=2pass / mbtree=0 / bitrate=4660 / ratetol=1.0 / qcomp=0.60 / qpmin=10 / qpmax=35 / qpstep=4 / cplxblur=20.0 / qblur=0.5 / ip_ratio=1.40 / pb_ratio=1.30 / aq=1:0.70
Language : English
Audio #1
ID : 2
Format : AC-3
Format/Info : Audio Coding 3
Mode extension : CM (complete main)
Codec ID : A_AC3
Duration : 1h 33mn
Bit rate mode : Constant
Bit rate : 640 Kbps
Channel(s) : 6 channels
Channel positions : Front: L C R, Side: L R, LFE
Sampling rate : 48.0 KHz
Bit depth : 16 bits
Compression mode : Lossy
Stream size : 427 MiB (9%)
Title : AC3 5.1ch 640 kbps - Дубляж, Blu-ray
Language : Russian
Audio #2
ID : 3
Format : AC-3
Format/Info : Audio Coding 3
Mode extension : CM (complete main)
Codec ID : A_AC3
Duration : 1h 33mn
Bit rate mode : Constant
Bit rate : 640 Kbps
Channel(s) : 6 channels
Channel positions : Front: L C R, Side: L R, LFE
Sampling rate : 48.0 KHz
Bit depth : 16 bits
Compression mode : Lossy
Stream size : 427 MiB (9%)
Title : AC3 5.1ch 640 kbps - Дубляж, Blu-ray
Language : Ukrainian
Audio #3
ID : 4
Format : AC-3
Format/Info : Audio Coding 3
Mode extension : CM (complete main)
Codec ID : A_AC3
Duration : 1h 33mn
Bit rate mode : Constant
Bit rate : 640 Kbps
Channel(s) : 6 channels
Channel positions : Front: L C R, Side: L R, LFE
Sampling rate : 48.0 KHz
Bit depth : 16 bits
Compression mode : Lossy
Stream size : 427 MiB (9%)
Title : AC3 5.1ch 640 kbps
Language : English
Audio #4
ID : 5
Format : AC-3
Format/Info : Audio Coding 3
Mode extension : CM (complete main)
Codec ID : A_AC3
Duration : 1h 33mn
Bit rate mode : Constant
Bit rate : 224 Kbps
Channel(s) : 2 channels
Channel positions : Front: L R
Sampling rate : 48.0 KHz
Bit depth : 16 bits
Compression mode : Lossy
Stream size : 149 MiB (3%)
Title : AC3 2.0ch 224 kbps - Commentary
Language : English
Text #1
ID : 6
Format : UTF-8
Codec ID : S_TEXT/UTF8
Codec ID/Info : UTF-8 Plain Text
Language : Russian
Text #2
ID : 7
Format : UTF-8
Codec ID : S_TEXT/UTF8
Codec ID/Info : UTF-8 Plain Text
Language : Ukrainian
Text #3
ID : 8
Format : UTF-8
Codec ID : S_TEXT/UTF8
Codec ID/Info : UTF-8 Plain Text
Language : English
Text #4
ID : 9
Format : UTF-8
Codec ID : S_TEXT/UTF8
Codec ID/Info : UTF-8 Plain Text
Title : Commentary
Language : English
Menu
00:00:00.000 : en:Chapter 1
00:04:47.787 : en:Chapter 2
00:08:39.936 : en:Chapter 3
00:14:51.724 : en:Chapter 4
00:19:51.190 : en:Chapter 5
00:24:43.315 : en:Chapter 6
00:33:22.334 : en:Chapter 7
00:41:11.469 : en:Chapter 8
00:44:51.272 : en:Chapter 9
00:48:32.451 : en:Chapter 10
00:51:31.630 : en:Chapter 11
00:53:02.388 : en:Chapter 12
00:58:25.961 : en:Chapter 13
01:03:13.748 : en:Chapter 14
01:05:48.862 : en:Chapter 15
01:12:34.475 : en:Chapter 16
01:20:00.421 : en:Chapter 17
01:23:13.822 : en:Chapter 18
--

Скриншоты



--


Последний раз редактировалось: maxuz (2013-12-07 03:24), всего редактировалось 9 раз(а)

Создавать темы 05-Дек-2013 21:51

[Профиль]  [ЛС] 

PerSey

Стаж: 4 года 6 месяцев

Сообщений: 42

Симпатии: 5

мультфильм проста супер, спасибо автору


Последний раз редактировалось: PerSey (2013-12-05 22:59), всего редактировалось 1 раз

Создавать темы 05-Дек-2013 21:59

[Профиль]  [ЛС] 

PerSey

Стаж: 4 года 6 месяцев

Сообщений: 42

Симпатии: 5

Создавать темы 05-Дек-2013 22:55

[Профиль]  [ЛС] 

ZeroX

Стаж: 5 лет 7 месяцев

Сообщений: 146

Симпатии: 3

Мини эпизоды бы еще добавил, для полноты коллекции, а за релиз спасибо, скачаем как нибудь tf

Создавать темы 05-Дек-2013 23:23

[Профиль]  [ЛС] 

Alcatraz

Стаж: 6 лет 7 месяцев

Сообщений: 54

Симпатии: 7

Ребята в детстве его на узбекском смотрел, так смешно перевели)
У кого есть на Узбекском языке? залейте пожалуйста)

Создавать темы 06-Дек-2013 11:42

[Профиль]  [ЛС] 

najim

Стаж: 5 лет 4 месяца

Сообщений: 17

Симпатии: 1

друзья встаньте на раздачу, ели нашел в тас иксе и тут скорости нет

Создавать темы 07-Дек-2013 22:00

[Профиль]  [ЛС] 

maxuz ®

Стаж: 6 лет 9 месяцев

Сообщений: 55

Симпатии: 3

ОК


Последний раз редактировалось: maxuz (2015-01-01 01:50), всего редактировалось 1 раз

Создавать темы 08-Дек-2013 18:25

[Профиль]  [ЛС] 

najim

Стаж: 5 лет 4 месяца

Сообщений: 17

Симпатии: 1

maxuz, сделай так как делал когда новый релиз ставил, скачай торрент файл открой и укажи папку где находятся эти файлы

Создавать темы 13-Дек-2013 20:03

[Профиль]  [ЛС] 

maxuz ®

Стаж: 6 лет 9 месяцев

Сообщений: 55

Симпатии: 3

ребят через три дня будет раздача комп глючит сейчас ноутом работаю на ноуте этот мулыта нет спасибо за понимание

Создавать темы 23-Дек-2013 22:50

[Профиль]  [ЛС] 

najim

Стаж: 5 лет 4 месяца

Сообщений: 17

Симпатии: 1

maxuz, помоему три дня прошли, очень хочу посмотреть этот мультик

Создавать темы 01-Янв-2014 14:12

[Профиль]  [ЛС] 

maxuz ®

Стаж: 6 лет 9 месяцев

Сообщений: 55

Симпатии: 3

непонял ваше нет раздачу

Создавать темы 28-Янв-2014 12:33

[Профиль]  [ЛС] 

maxuz ®

Стаж: 6 лет 9 месяцев

Сообщений: 55

Симпатии: 3

Скачавышыйе Леди и Джентельмены куда вы пропали, пожалуйста сидеруйте чтобь другыйе тоже скачали

Создавать темы 10-Фев-2014 23:48

[Профиль]  [ЛС] 

iskanderr

Стаж: 4 года 8 месяцев

Сообщений: 10

Видимо этот мультфильм нам никогда не скачать....Кошмар

Создавать темы 21-Авг-2014 20:05

[Профиль]  [ЛС] 

filth

Стаж: 6 лет 3 месяца

Сообщений: 25

Симпатии: 1

что то не понял... скачал 2 файла и они не воспроизводятся в плеере (PotPlayer) все сектора забиты (00 00 00 00) будто нет иформации.... перезалейте торрент файл или объяснити в чём может быть проблемма?

Создавать темы 02-Дек-2014 21:14

[Профиль]  [ЛС] 
Показать сообщения:    
Ответить на тему

Текущее время: 18-Ноя 13:17

Часовой пояс: UTC + 5



Вы не можете начинать темы
Вы не можете отвечать на сообщения
Вы не можете редактировать свои сообщения
Вы не можете удалять свои сообщения
Вы не можете голосовать в опросах
Вы не можете прикреплять файлы к сообщениям
Вы не можете скачивать файлы