Гравитация / Gravity (Альфонсо Куарон) [2013 г., фантастика, триллер, драма, WEBRip-AVC] [Чистый звук]

Страницы :  1, 2  След.

Ответить на тему
 

Suxrob89 ®

Стаж: 7 лет 1 месяц

Сообщений: 933

Симпатии: 564

- -Гравитация / Gravity-«Не отпускай»- Год выпуска: 2013
Страна: США, Великобритания
Жанр: фантастика, триллер, драма
Продолжительность: 01:30:54
Перевод : Дублированный [Чистый звук]
Субтитры: Нет
Оригинальная аудиодорожка: английская-Режиссер: Альфонсо Куарон-В ролях: Сандра Буллок, Джордж Клуни, Эд Харрис, Орто Игнатиуссен, Пол Шарма, Эми Уоррен, Башер Саваж-Описание: Доктор Райан Стоун, блестящий специалист в области медицинского инжиниринга, отправляется в свою первую космическую миссию под командованием ветерана астронавтики Мэтта Ковальски, для которого этот полет — последний перед отставкой. Но во время, казалось бы, рутинной работы за бортом случается катастрофа. Шаттл уничтожен, а Стоун и Ковальски остаются совершенно одни; они находятся в связке друг с другом, и все, что они могут, — это двигаться по орбите в абсолютно черном пространстве без всякой связи с Землей и какой-либо надежды на спасение.- -Качество: WEBRip 720p
Формат: MKV
Видео кодек: XviD
Аудио кодек: AC3
Видео: 1280 x 528, 23.976 fps,3414 Kbps
Аудио 1: AC-3, 48.0 KHz; 448 Kbps; 6 ch; 16 bits [RUS]
Аудио 2: AC-3; 48 KHz; 384 kbps; 6 ch; 16 bits [ENG]

Media info

D:\GRAVITY.2013.WEBRip.720p.RUS.LINE.mkv
General
Unique ID : 213673681289305845714011039558256294785 (0xA0C00DDA4CF46AEB9AA2DD39205FFB81)
Complete name : D:\GRAVITY.2013.WEBRip.720p.RUS.LINE.mkv
Format : Matroska
Format version : Version 4 / Version 2
File size : 2.75 GiB
Duration : 1h 30mn
Overall bit rate : 4 333 Kbps
Movie name : GRAVITY.2013.WEB-DLRip.720p.RUS.LINE - HDREACTOR.ORG
Encoded date : UTC 2013-12-15 00:36:07
Writing application : mkvmerge v6.5.0 ('Isn't she lovely') built on Oct 20 2013 12:50:05
Writing library : libebml v1.3.0 + libmatroska v1.4.1
Video #1
ID : 1
Format : MPEG-4 Visual
Format profile : Advanced [email protected]
Format settings, BVOP : Yes
Format settings, QPel : No
Format settings, GMC : No warppoints
Format settings, Matrix : Default (H.263)
Codec ID : V_MS/VFW/FOURCC / XVID
Codec ID/Hint : XviD
Duration : 1h 30mn
Bit rate : 3 414 Kbps
Width : 1 280 pixels
Height : 528 pixels
Display aspect ratio : 2.40:1
Frame rate mode : Constant
Frame rate : 23.976 fps
Color space : YUV
Chroma subsampling : 4:2:0
Bit depth : 8 bits
Scan type : Progressive
Compression mode : Lossy
Bits/(Pixel*Frame) : 0.211
Stream size : 2.17 GiB (79%)
Writing library : XviD 1.2.1 (UTC 2008-12-04)
Language : English
Default : Yes
Forced : Yes
Audio #2
ID : 2
Format : AC-3
Format/Info : Audio Coding 3
Mode extension : CM (complete main)
Format settings, Endianness : Big
Codec ID : A_AC3
Duration : 1h 30mn
Bit rate mode : Constant
Bit rate : 448 Kbps
Channel(s) : 6 channels
Channel positions : Front: L C R, Side: L R, LFE
Sampling rate : 48.0 KHz
Bit depth : 16 bits
Compression mode : Lossy
Stream size : 291 MiB (10%)
Title : Russian AC-3 (48.0 KHz; 448 Kbps; 6 ch; 16 bits)
Language : Russian
Default : Yes
Forced : Yes
Audio #3
ID : 3
Format : AC-3
Format/Info : Audio Coding 3
Mode extension : CM (complete main)
Format settings, Endianness : Big
Codec ID : A_AC3
Duration : 1h 30mn
Bit rate mode : Constant
Bit rate : 384 Kbps
Channel(s) : 6 channels
Channel positions : Front: L C R, Side: L R, LFE
Sampling rate : 48.0 KHz
Bit depth : 16 bits
Compression mode : Lossy
Stream size : 250 MiB (9%)
Title : English AC-3 (48.0 KHz; 384 Kbps; 6 ch; 16 bits)
Language : English
Default : No
Forced : No

Скриншот c названием фильма

Скриншоты



Последний раз редактировалось: Suxrob89 (2013-12-17 07:14), всего редактировалось 4 раз(а)

Создавать темы 07-Дек-2013 06:25

[Профиль]  [ЛС] 

Топик был перенесен из форума CamRip\Telesync\SATRip\TVRip в форум Фильмы за 2013 (новинки)

Suxrob89

Создавать темы 10-Дек-2013 12:28

 

AeRoNHanD

Стаж: 4 года 11 месяцев

Сообщений: 198

Симпатии: 3

Рейтинг удивил

Создавать темы 10-Дек-2013 13:05

[Профиль]  [ЛС] 

AeRoNHanD

Стаж: 4 года 11 месяцев

Сообщений: 198

Симпатии: 3

Лицензия когда???

Создавать темы 10-Дек-2013 13:12

[Профиль]  [ЛС] 

Топик был перенесен из форума Фильмы за 2013 (новинки) в форум CamRip\Telesync\SATRip\TVRip

Иви

Создавать темы 10-Дек-2013 15:29

 

mansurjon

Стаж: 7 лет 4 месяца

Сообщений: 103

Симпатии: 3

Лицензия когда???
релиз на DVD и Blu-Ray
13 февраля 2014, «CP Дистрибуция»

Создавать темы 10-Дек-2013 18:46

[Профиль]  [ЛС] 

Тямик

Стаж: 4 года 11 месяцев

Сообщений: 31

Симпатии: 8

Фильм не о чем(

Создавать темы 11-Дек-2013 09:44

[Профиль]  [ЛС] 

totsamiy

Стаж: 5 лет 3 месяца

Сообщений: 145

Симпатии: 22

Фильм не о чем(
сомневаюсь, рейтинги высокие...

Создавать темы 11-Дек-2013 18:50

[Профиль]  [ЛС] 

Windtrader

Стаж: 6 лет 5 месяцев

Сообщений: 13

Симпатии: 2

Фильм Класс!!! Очень интересно снят, держит в напряжении до самого конца . Советую !!!

Создавать темы 11-Дек-2013 19:41

[Профиль]  [ЛС] 

Топик был перенесен из форума CamRip\Telesync\SATRip\TVRip в форум HD-AVC

Suxrob89

Создавать темы 16-Дек-2013 21:57

 

boxodir90

Стаж: 5 лет

Сообщений: 49

Симпатии: 4

Почему такой размытый?

Создавать темы 16-Дек-2013 22:12

[Профиль]  [ЛС] 

victor0778

Стаж: 6 лет 7 месяцев

Сообщений: 1670

Симпатии: 142

Suxrob89,
судя по скриншотам ни о каком WEB-DLRip и речи быть не может, как был скринер так и остался + рип кривой Формат: MKV, а кодек XviD, странно почему fps не 30

Создавать темы 17-Дек-2013 00:07

[Профиль]  [ЛС] 

fudeglan

Стаж: 4 года 6 месяцев

Сообщений: 14

Симпатии: 2

Suxrob89, Как дела с звуком друг. До этого качал, звук был ужасен(((

Создавать темы 17-Дек-2013 15:45

[Профиль]  [ЛС] 

misha88_22

Стаж: 4 года 10 месяцев

Сообщений: 15

Suxrob89 почему некачает уменя на 8 процентах зависло и стоит я раздал болъше чем скачал в чём проблема

Создавать темы 17-Дек-2013 17:03

[Профиль]  [ЛС] 

gold_nik

Стаж: 6 лет 5 месяцев

Сообщений: 9

Фильм класс

Создавать темы 21-Дек-2013 01:08

[Профиль]  [ЛС] 
Показать сообщения:    
Ответить на тему

Текущее время: 20-Сен 07:12

Часовой пояс: UTC + 5



Вы не можете начинать темы
Вы не можете отвечать на сообщения
Вы не можете редактировать свои сообщения
Вы не можете удалять свои сообщения
Вы не можете голосовать в опросах
Вы не можете прикреплять файлы к сообщениям
Вы не можете скачивать файлы