Мэрдок Скрэмбл: Фильм третий - истощение / Mardock Scramble Haiki / Mardock Scramble: The Third Exhaust (Кудо Сусуму) [Movie] [без хардсаба] [RUS(Int)] [2012, киберпанк, приключения, фантастика]

Ответить на тему
 

Phantomhive ®

Стаж: 4 года 2 месяца

Сообщений: 218

Симпатии: 10

-Мэрдок Скрэмбл: Истощение (третий фильм)
Mardock Scramble Haiki

-Страна: Япония
Жанр: киберпанк, приключения, фантастика
Продолжительность: полнометражный фильм, 68 мин.
Перевод: Любительский двухголосый
Озвучивание :Трина Дубовицкая & Sad Kit
Студия:
Режиссер: Кудо Сусуму
Автор оригинала: Убуката То-Описание:Истер, Балот и Уфкок наконец придумали способ раз и навсегда разобраться с Шеллом в суде. Но не всё так просто — ради исполнения задуманного им придётся ступить на территорию самого Шелла, казино БлюЭгг в самом центре Мардок Сити, и найти чипы с воспоминаниями. Если им это не удастся, дело будет закрыто, а их "полезность" окажется под вопросом — что, в свою очередь, будет означать смерть героев. Успеет ли Балот найти чипы? Сможет ли она избежать цепких рук Бойлда, который, словно бешеная гончая, рыщет в поисках девушки и Уфкока?-© Hollow, World Art
-Качество: HDTVRip
Формат:MP4
Видео: h264; 1280x720; (16:9), 3 056 Kbps, 8 bits, 23.976 fps
Аудио: AAC, 2 ch, 48 KHz, 256 kbps
Субтитры: отсутствуют-

MI:

General
Complete name : C:\Documents and Settings\Администратор\Мои документы\Downloads\Mardock Scramble Haiki (Трина Дубовицкая & Sad_Kit).mp4
Format : MPEG-4
Format profile : Base Media
Codec ID : isom
File size : 1.57 GiB
Duration : 1h 8mn
Overall bit rate mode : Variable
Overall bit rate : 3 252 Kbps
Encoded date : UTC 2013-10-23 18:46:41
Tagged date : UTC 2013-10-23 18:46:41
Video
ID : 1
Format : AVC
Format/Info : Advanced Video Codec
Format profile : [email protected]
Format settings, CABAC : Yes
Format settings, ReFrames : 4 frames
Codec ID : avc1
Codec ID/Info : Advanced Video Coding
Duration : 1h 8mn
Bit rate : 3 056 Kbps
Maximum bit rate : 22.5 Mbps
Width : 1 280 pixels
Height : 720 pixels
Display aspect ratio : 16:9
Frame rate mode : Constant
Frame rate : 23.976 fps
Color space : YUV
Chroma subsampling : 4:2:0
Bit depth : 8 bits
Scan type : Progressive
Bits/(Pixel*Frame) : 0.138
Stream size : 1.47 GiB (94%)
Title : [QTS] Mardock Scramble The Third Exhaust -Complete Version-_BD
Writing library : x264 core 138 r2358 9e941d1
Encoding settings : cabac=1 / ref=4 / deblock=1:0:0 / analyse=0x3:0x133 / me=umh / subme=9 / psy=1 / psy_rd=1.00:0.00 / mixed_ref=1 / me_range=24 / chroma_me=1 / trellis=2 / 8x8dct=1 / cqm=0 / deadzone=21,11 / fast_pskip=0 / chroma_qp_offset=-2 / threads=9 / lookahead_threads=1 / sliced_threads=0 / nr=0 / decimate=0 / interlaced=0 / bluray_compat=0 / constrained_intra=0 / bframes=3 / b_pyramid=2 / b_adapt=2 / b_bias=0 / direct=3 / weightb=1 / open_gop=0 / weightp=2 / keyint=240 / keyint_min=24 / scenecut=40 / intra_refresh=0 / rc_lookahead=40 / rc=crf / mbtree=1 / crf=22.0 / qcomp=0.60 / qpmin=0 / qpmax=51 / qpstep=4 / ip_ratio=1.40 / aq=1:1.00
Language : Japanese
Encoded date : UTC 2013-09-27 15:35:38
Tagged date : UTC 2013-10-23 18:47:36
Color primaries : BT.709-5, BT.1361, IEC 61966-2-4, SMPTE RP177
Transfer characteristics : BT.709-5, BT.1361
Matrix coefficients : BT.709-5, BT.1361, IEC 61966-2-4 709, SMPTE RP177
Audio
ID : 2
Format : AAC
Format/Info : Advanced Audio Codec
Format profile : LC
Codec ID : 40
Duration : 1h 8mn
Bit rate mode : Variable
Bit rate : 192 Kbps
Maximum bit rate : 237 Kbps
Channel(s) : 2 channels
Channel positions : Front: L R
Sampling rate : 48.0 KHz
Compression mode : Lossy
Stream size : 94.7 MiB (6%)
Encoded date : UTC 2013-10-23 18:47:21
Tagged date : UTC 2013-10-23 18:47:36

Скриншоты



Последний раз редактировалось: Phantomhive (2013-12-09 18:20), всего редактировалось 18 раз(а)

Создавать темы 07-Дек-2013 06:42

[Профиль]  [ЛС] 

Phantomhive ®

Стаж: 4 года 2 месяца

Сообщений: 218

Симпатии: 10

Админи постаралса как мог!!! Прошу понят!!!

Создавать темы 07-Дек-2013 06:44

[Профиль]  [ЛС] 

Rambotnik

Стаж: 6 лет 3 месяца

Сообщений: 1274

Симпатии: 81

Добавляем информацию по звуковым дорожкам - есть ли японская аудиодорога или только одна русская ? Обозначаем описание существующей дороги:
Аудио 1: Aac; 48.0 khz; 2.0ch; 192 kbps - Русская
Аудио 2: есть или нет ?
Добавляем в техданные тип рипа - HDTVRip, BDRip, и т.д..
И ещё раз прочитайте эту тему.

Создавать темы 07-Дек-2013 07:24

[Профиль]  [ЛС] 

SNIL

Стаж: 5 лет 7 месяцев

Сообщений: 2624

Симпатии: 341

спасибки (правда я уже запамитовал что там было в первой:)
это же в этом аниме в конце (первой части) она с двух пистолов фрукты отстреливает (и там мышь говоряшая!?:)

Создавать темы 07-Дек-2013 12:16

[Профиль]  [ЛС] 

Rambotnik

Стаж: 6 лет 3 месяца

Сообщений: 1274

Симпатии: 81

Да.

Создавать темы 07-Дек-2013 16:31

[Профиль]  [ЛС] 

SNIL

Стаж: 5 лет 7 месяцев

Сообщений: 2624

Симпатии: 341

похоже релизер испрвлять не собирается(

Создавать темы 08-Дек-2013 17:25

[Профиль]  [ЛС] 

Phantomhive ®

Стаж: 4 года 2 месяца

Сообщений: 218

Симпатии: 10

я хочу но чота не смикаю как!!

Создавать темы 08-Дек-2013 17:56

[Профиль]  [ЛС] 

SNIL

Стаж: 5 лет 7 месяцев

Сообщений: 2624

Симпатии: 341

Phantomhive, FAQ По Исправлении ошибок в Релизе. Перенос темы в архив

Создавать темы 08-Дек-2013 18:10

[Профиль]  [ЛС] 

Phantomhive ®

Стаж: 4 года 2 месяца

Сообщений: 218

Симпатии: 10

Админи исправил и поправил прошу посмотреть!!!

Создавать темы 09-Дек-2013 18:21

[Профиль]  [ЛС] 
Показать сообщения:    
Ответить на тему

Текущее время: 18-Авг 14:00

Часовой пояс: UTC + 5



Вы не можете начинать темы
Вы не можете отвечать на сообщения
Вы не можете редактировать свои сообщения
Вы не можете удалять свои сообщения
Вы не можете голосовать в опросах
Вы не можете прикреплять файлы к сообщениям
Вы не можете скачивать файлы