Капитан Филлипс / Captain Phillips (Пол Гринграсс / Paul Greengrass) [2013, США, триллер, драма, криминал, боевик, HDRip] Dub (Чистый звук)

Страницы :  1, 2, 3  След.

Тема закрыта
 

Suxrob89 ®

Стаж: 7 лет 2 месяца

Сообщений: 933

Симпатии: 564

-Капитан Филлипс / Captain Phillips- Страна: США, Michael De Luca Productions, Scott Rudin Productions, Translux, Trigger Street Productions
Жанр: триллер, драма, криминал, боевик
Год выпуска: 2013
Продолжительность: 02:14:03
Перевод: Дублированный (Чистый звук)
Субтитры: Отсутствуют-Режиссер: Пол Гринграсс / Paul Greengrass-В ролях: Том Хэнкс, Баркхад Абди, Баркхад Абдирахман, Файсал Ахмед, Махат М. Али, Майкл Чернус, Кэтрин Кинер, Дэвид Уоршофски, Кори Джонсон, Крис Малки, Юл Васкез, Макс Мартин-Описание: В начале апреля 2009 года, близ берегов Африки, несколько сомалийских пиратов атакуют и пытаются захватить массивный контейнеровоз MV Maersk Alabama. Команда корабля активно сопротивляется и в конце концов не даёт взять себя в плен. Захватчики вынуждены ретироваться и покинуть судно на небольшом катере, прихватив с собой немолодого капитана Ричарда Филлипса...-Дата мировой премьеры: 27 сентября 2013,
Дата российской премьеры: 5 декабря 2013, «WDSSPR»
Дата выхода DVD релиза: 11 марта 2014, «Columbia/Sony»- -Качество видео: HDRip
Формат видео: AVI
Видео: XviD, 1162 Кбит/с, 720x304, 23,976 кадра/сек
Аудио : AC3, 2 ch, 384 Кбит/с, 48.0 KHz

MediaInfo

D:\Kapitan.Filips.2013.D.HDRip.1400MB.avi
General
Complete name : D:\Kapitan.Filips.2013.D.HDRip.1400MB.avi
Format : AVI
Format/Info : Audio Video Interleave
File size : 1.36 GiB
Duration : 2h 14mn
Overall bit rate : 1 454 Kbps
Writing application : VirtualDubMod 1.5.10.2 (build 2540/release)
Writing library : VirtualDubMod build 2540/release
Video #0
ID : 0
Format : MPEG-4 Visual
Format profile : Advanced [email protected]
Format settings, BVOP : 2
Format settings, QPel : No
Format settings, GMC : No warppoints
Format settings, Matrix : Default (MPEG)
Codec ID : XVID
Codec ID/Hint : XviD
Duration : 2h 14mn
Bit rate : 1 061 Kbps
Width : 720 pixels
Height : 304 pixels
Display aspect ratio : 2.35:1
Frame rate : 23.976 fps
Color space : YUV
Chroma subsampling : 4:2:0
Bit depth : 8 bits
Scan type : Progressive
Compression mode : Lossy
Bits/(Pixel*Frame) : 0.202
Stream size : 1 017 MiB (73%)
Writing library : XviD 1.2.1 (UTC 2008-12-04)
Audio #1
ID : 1
Format : AC-3
Format/Info : Audio Coding 3
Mode extension : CM (complete main)
Format settings, Endianness : Big
Codec ID : 2000
Duration : 2h 14mn
Bit rate mode : Constant
Bit rate : 384 Kbps
Channel(s) : 2 channels
Channel positions : Front: L R
Sampling rate : 48.0 KHz
Bit depth : 16 bits
Compression mode : Lossy
Stream size : 368 MiB (26%)
Alignment : Split accross interleaves
Interleave, duration : 42 ms (1.00 video frame)
Interleave, preload duration : 500 ms

Скриншоты



Последний раз редактировалось: Suxrob89 (2014-01-20 06:13), всего редактировалось 2 раз(а)

Создавать темы 07-Дек-2013 07:15

[Профиль]  [ЛС] 

bashi

Стаж: 5 лет 8 месяцев

Сообщений: 42

кчества хароши Suxrob89,

Создавать темы 07-Дек-2013 09:03

[Профиль]  [ЛС] 

Ramilzver

Стаж: 7 лет 2 месяца

Сообщений: 115

Симпатии: 4

Рейтинг очень хороший, буду ждать лицензию.

Создавать темы 07-Дек-2013 09:24

[Профиль]  [ЛС] 

Allwind

Стаж: 4 года

Сообщений: 2

не смотря на то, что фильм американский, понравился, показали по-настоящему без лишнего пафоса эпизод из реальной жизни

Создавать темы 16-Дек-2013 22:41

[Профиль]  [ЛС] 

Quality

Стаж: 7 лет 3 месяца

Сообщений: 55

Симпатии: 3

Том Хэнкс, фильм по любому зачетный должен быть!!!

Создавать темы 16-Дек-2013 23:50

[Профиль]  [ЛС] 

skydream

Стаж: 4 года 8 месяцев

Сообщений: 65

звук как? можно слушать? или бубнят под нос что не разобрать что говорят? отпишитесь кто посмотрел?

Создавать темы 17-Дек-2013 10:21

[Профиль]  [ЛС] 

skydream

Стаж: 4 года 8 месяцев

Сообщений: 65

мда походу качай и так же сиди никому ниче не говори

Создавать темы 17-Дек-2013 22:16

[Профиль]  [ЛС] 

jas81

Стаж: 3 года 11 месяцев

Сообщений: 108

Симпатии: 7

Фильм не стоит качать. Какой то сказка, весь американский спец.наз и морские котики не могут спасать капитана из группы 4 негров. Зря тратиль 2 часа.

Создавать темы 06-Янв-2014 20:08

[Профиль]  [ЛС] 

ibragimof

Стаж: 6 лет 6 месяцев

Сообщений: 253

Симпатии: 48

нормальный фильм, по сравнению с новыми фильмами

Создавать темы 12-Янв-2014 11:52

[Профиль]  [ЛС] 

Flatonfloor

Стаж: 4 года 7 месяцев

Сообщений: 179

Симпатии: 30

Правильно! Не качайте фильм-сказку основанный на реальных событиях! Лучше про танцоров в другой раздаче, там все четко!

Создавать темы 13-Янв-2014 16:36

[Профиль]  [ЛС] 

alezzio

Стаж: 5 лет 2 месяца

Сообщений: 27

Симпатии: 8

Отличный фильм

Создавать темы 13-Янв-2014 19:52

[Профиль]  [ЛС] 

Semen

Стаж: 6 лет 11 месяцев

Сообщений: 87

Симпатии: 7

Фильм не стоит качать. Какой то сказка, весь американский спец.наз и морские котики не могут спасать капитана из группы 4 негров. Зря тратиль 2 часа.
Спасибо, качаю.

Создавать темы 13-Янв-2014 20:16

[Профиль]  [ЛС] 

TimaK

Стаж: 6 лет 5 месяцев

Сообщений: 129

Симпатии: 23

jas81,
Фильм не стоит качать. Какой то сказка, весь американский спец.наз и морские котики не могут спасать капитана из группы 4 негров. Зря тратиль 2 часа.
Спасибо, качаю.
Ууу... а у тебя тонкий вкус как у баб, всё ждут идеального парня. Надуюсь ты найдешь свой фильм.

Создавать темы 13-Янв-2014 21:31

[Профиль]  [ЛС] 

shoxrux09

Стаж: 4 года 11 месяцев

Сообщений: 32

Симпатии: 4

Очень хороший, правдоподобный фильм, о том бардаке на Самалийских берегах!! Чисто по качеству, фильму высший бал! Сюжет держит в напряжении, не адeкватного поведения героев не замечено, всё в рамках сложивсейся ситуации!! А как подумаешь, что всё это происходило по настоящему, то капитану действительно надо памятник ставить, людей с такой выдержкой и железными нервами поискать надо!!! Том Хэнкс справился с ролью на отлично, явная заявка на Оскар!! 10/10
Качество озвучки вполне приемлемы!!!!!!

Создавать темы 14-Янв-2014 02:50

[Профиль]  [ЛС] 

Semen

Стаж: 6 лет 11 месяцев

Сообщений: 87

Симпатии: 7

jas81,
Фильм не стоит качать. Какой то сказка, весь американский спец.наз и морские котики не могут спасать капитана из группы 4 негров. Зря тратиль 2 часа.
Спасибо, качаю.
Ууу... а у тебя тонкий вкус как у баб, всё ждут идеального парня. Надуюсь ты найдешь свой фильм.
это ты кому, мудила?

Создавать темы 14-Янв-2014 06:38

[Профиль]  [ЛС] 
Показать сообщения:    
Тема закрыта

Текущее время: 20-Окт 10:07

Часовой пояс: UTC + 5



Вы не можете начинать темы
Вы не можете отвечать на сообщения
Вы не можете редактировать свои сообщения
Вы не можете удалять свои сообщения
Вы не можете голосовать в опросах
Вы не можете прикреплять файлы к сообщениям
Вы не можете скачивать файлы