Парклэнд / Parkland (Питер Ландесман) [2013 г., триллер, драма, детектив, HDRip]

Ответить на тему
 

Каротажник ®

Стаж: 4 года

Сообщений: 195

Симпатии: 211

Парклэнд / Parkland


: 2013
:
: триллер, драма, детектив
: 01:33:39
: Любительский одноголосный - datynet
: Питер Ландесман
: Зак Эфрон, Марша Гей Харден, Билли Боб Торнтон, Джеки Уивер, Пол Джаматти, Мэтт Барр, Мэллори Мой, Битси Таллоч, Рон Ливингстон, Джейсон Дуглас

22 ноября 1963 года случилось самое загадочное убийство и траурный день для всего США. Госпиталь Парклэнд стал последним пристанищем Джона Ф. Кеннеди. Данный фильм это одна из версий того что произошло в тот роковой день. Как и почему случилось так, что спец. службы не углядели ошибки и что случилось с убийцей великого президента. И вообще показаны события происшедшие в тот роковой день в Далласе.

Качество: HDRip
Формат: AVI
Видео кодек: XviD
Аудио кодек: MP3
Видео: XviD, 1838 Кбит/с, 720x400
Аудио: MP3, 2 ch, 192 Кбит/с

Media Info

Format : AVI
Format/Info : Audio Video Interleave
File size : 1.33 GiB
Duration : 1h 33mn
Overall bit rate : 2 039 Kbps
Writing application : VirtualDubMod 1.5.10.3 | www.virtualdub-fr.org || (build 2550/release)
Writing library : VirtualDub build 34753/release
Video #0
ID : 0
Format : MPEG-4 Visual
Format profile : Advanced [email protected]
Format settings, BVOP : 2
Format settings, QPel : No
Format settings, GMC : No warppoints
Format settings, Matrix : Default (H.263)
Codec ID : XVID
Codec ID/Hint : XviD
Duration : 1h 33mn
Bit rate : 1 838 Kbps
Width : 720 pixels
Height : 400 pixels
Display aspect ratio : 16:9
Frame rate : 23.976 fps
Color space : YUV
Chroma subsampling : 4:2:0
Bit depth : 8 bits
Scan type : Progressive
Compression mode : Lossy
Bits/(Pixel*Frame) : 0.266
Stream size : 1.20 GiB (90%)
Writing library : XviD 1.2.1 (UTC 2008-12-04)
Audio #1
ID : 1
Format : MPEG Audio
Format version : Version 1
Format profile : Layer 3
Codec ID : 55
Codec ID/Hint : MP3
Duration : 1h 33mn
Bit rate mode : Constant
Bit rate : 192 Kbps
Channel(s) : 2 channels
Sampling rate : 44.1 KHz
Compression mode : Lossy
Stream size : 129 MiB (9%)
Alignment : Split accross interleaves
Interleave, duration : 42 ms (1.00 video frame)
Interleave, preload duration : 500 ms

Скриншоты


Создавать темы 07-Дек-2013 10:27

[Профиль]  [ЛС] 

madjid

Стаж: 4 года 7 месяцев

Сообщений: 33

красивое оформление круто!!

Создавать темы 07-Дек-2013 15:07

[Профиль]  [ЛС] 

Mickie

Стаж: 4 года 5 месяцев

Сообщений: 83

Симпатии: 7

как фильм стоит смотреть?

Создавать темы 07-Дек-2013 16:38

[Профиль]  [ЛС] 

victor0778

Стаж: 6 лет 8 месяцев

Сообщений: 1670

Симпатии: 142

красивое оформление круто!!
читать практически не возможно, глаз режет. это не красота, это как велосипед весь в катафотах, хозяин думает что красиво, а на самом деле смотреть невозможно. сугубо моё мнение

Создавать темы 07-Дек-2013 17:17

[Профиль]  [ЛС] 

glenn_quagmire

Стаж: 5 лет 8 месяцев

Сообщений: 34

фильм ни о чём.и даже меньше.
имя в продюсерах тома хэнкса разочаровало.
нам не интересна беготня телохов после убийства.
вы не задумывались, почему убийцу освальда -джека рубинштейна все называли джек руби.
сокращённо без суффикса.
большинство свидетелей, причастных к этому делу было ликвидировано(десятки человек).
а про две версии даже никто и не пукнул.
о том ,что кеннеди хотел запретить производство ядерного плутония израилю .
и стал печатать деньги без согласия ФРС ,которая как известно принадлежит кагалу .
кеннеди был последним президентом католиком.
после него все президенты были только протестанты и иудеи.
я понял к чему ты клонишь, я понял ;)

Создавать темы 12-Дек-2013 06:51

[Профиль]  [ЛС] 

Mickie

Стаж: 4 года 5 месяцев

Сообщений: 83

Симпатии: 7

меня больше всего убивают скрины(((

Создавать темы 21-Янв-2014 21:08

[Профиль]  [ЛС] 

barsa09sarkosarko

Стаж: 4 года 7 месяцев

Сообщений: 1

дайте скорост ПОЖАЛУСТА Parkland.2013.HDRip

Создавать темы 30-Янв-2014 10:27

[Профиль]  [ЛС] 
Показать сообщения:    
Ответить на тему

Текущее время: 24-Окт 12:43

Часовой пояс: UTC + 5



Вы не можете начинать темы
Вы не можете отвечать на сообщения
Вы не можете редактировать свои сообщения
Вы не можете удалять свои сообщения
Вы не можете голосовать в опросах
Вы не можете прикреплять файлы к сообщениям
Вы не можете скачивать файлы