Альфа и Омега 2: Приключения праздничного воя / Alpha and Omega 2: A Howl-iday Adventure (Ричард Рич) [2013 г., мультфильм, комедия, приключения, семейный, BDRip-AVC]

Ответить на тему
 

RichmanVIP ®

Стаж: 4 года 8 месяцев

Сообщений: 97

Симпатии: 4

Альфа и Омега 2: Приключения праздничного воя / Alpha and Omega 2: A Howl-iday Adventure-
Год выпуска: 2013
Страна: США
Жанр: мультфильм, комедия, приключения, семейный
Продолжительность: 00:45:08
Перевод: Профессиональный (многоголосый)--Режиссер: Ричард Рич
Cценарий: Стив Мур
Продюсер: Дэниэл Энгельхардт, Сьюзэн Гелб, Кен Кацумото
Композитор: Крис П. Бэйкон--В ролях:
Бен Дискин, Кейт Хиггинс, Блэки Роуз, Линдсей Торренс, Лиза Уэст, Трэйси Пфау, Бил Лэйдер, Шон Жерардо--Описание:
Кейт и Хамфри и их 3 волчат, готовятся к празднованию их первой совместной зимы, когда их самый маленький детеныш, Рант, таинственным образом исчезает.--Доп.информация:
 --
Качество: BDRip-AVC 720p
Формат: MKV
Видео кодек: H.264
Аудио кодек: AC3
Видео: MPEG4 (H264) AVC, 4 572 Kbps, 1280x720, 23.976fps
Аудио 1: AC3 48 000Hz 2ch 192kbps (Русский)
Аудио 2: DTS 48 000Hz 6ch 1 509kbps (English)
Текст 1: English, PGS
Текст 2: English, PGS
Текст 3: Spanish, PGS

MediaInfo

General
Unique ID : 207909093711235711845821604286435037024 (0x9C69D5BDE64CCA42B95E32220D5A0F60)
Complete name : D:\Videos\2013\Альфа и Омега 2 - Приключения праздничного воя 2013 BDRip 720p.mkv
Format : Matroska
Format version : Version 4 / Version 2
File size : 2.02 GiB
Duration : 45mn 7s
Overall bit rate : 6 400 Kbps
Encoded date : UTC 2013-12-06 13:20:45
Writing application : mkvmerge v6.5.0 ('Isn't she lovely') built on Oct 20 2013 12:50:05
Writing library : libebml v1.3.0 + libmatroska v1.4.1
Video
ID : 1
Format : AVC
Format/Info : Advanced Video Codec
Format profile : [email protected]
Format settings, CABAC : Yes
Format settings, ReFrames : 5 frames
Codec ID : V_MPEG4/ISO/AVC
Duration : 45mn 7s
Bit rate : 4 572 Kbps
Width : 1 280 pixels
Height : 720 pixels
Display aspect ratio : 16:9
Frame rate mode : Constant
Frame rate : 23.976 fps
Color space : YUV
Chroma subsampling : 4:2:0
Bit depth : 8 bits
Scan type : Progressive
Bits/(Pixel*Frame) : 0.207
Stream size : 1.44 GiB (71%)
Language : English
Default : Yes
Forced : No
Audio #1
ID : 2
Format : AC-3
Format/Info : Audio Coding 3
Mode extension : CM (complete main)
Format settings, Endianness : Big
Codec ID : A_AC3
Duration : 45mn 7s
Bit rate mode : Constant
Bit rate : 192 Kbps
Channel count : 2 channels
Channel positions : Front: L R
Sampling rate : 48.0 KHz
Bit depth : 16 bits
Compression mode : Lossy
Stream size : 62.0 MiB (3%)
Default : Yes
Forced : No
Audio #2
ID : 3
Format : DTS
Format/Info : Digital Theater Systems
Mode : 16
Format settings, Endianness : Big
Codec ID : A_DTS
Duration : 45mn 7s
Bit rate mode : Constant
Bit rate : 1 509 Kbps
Channel count : 6 channels
Channel positions : Front: L C R, Side: L R, LFE
Sampling rate : 48.0 KHz
Bit depth : 24 bits
Compression mode : Lossy
Stream size : 487 MiB (24%)
Language : English
Default : No
Forced : No
Text #1
ID : 4
Format : PGS
Muxing mode : zlib
Codec ID : S_HDMV/PGS
Codec ID/Info : The same subtitle format used on BDs/HD-DVDs
Language : English
Default : No
Forced : No
Text #2
ID : 5
Format : PGS
Muxing mode : zlib
Codec ID : S_HDMV/PGS
Codec ID/Info : The same subtitle format used on BDs/HD-DVDs
Language : English
Default : No
Forced : No
Text #3
ID : 6
Format : PGS
Muxing mode : zlib
Codec ID : S_HDMV/PGS
Codec ID/Info : The same subtitle format used on BDs/HD-DVDs
Language : Spanish
Default : No
Forced : No
Menu
00:00:00.000 : en:00:00:00.000
00:04:27.809 : en:00:04:27.809
00:07:03.882 : en:00:07:03.882
00:16:12.847 : en:00:16:12.847
00:21:06.932 : en:00:21:06.932
00:26:10.652 : en:00:26:10.652
00:31:26.468 : en:00:31:26.468
00:37:05.932 : en:00:37:05.932

Скриншоты







Последний раз редактировалось: RichmanVIP (2013-12-11 18:50), всего редактировалось 4 раз(а)

Создавать темы 07-Дек-2013 17:21

[Профиль]  [ЛС] 

SNIL

Стаж: 5 лет 10 месяцев

Сообщений: 2624

Симпатии: 341

ну заценим

Создавать темы 07-Дек-2013 17:24

[Профиль]  [ЛС] 

victor0778

Стаж: 6 лет 9 месяцев

Сообщений: 1670

Симпатии: 142

ну заценим
только релизёр с рейтингом намутил, вот рейтинг  

Создавать темы 07-Дек-2013 17:39

[Профиль]  [ЛС] 

RichmanVIP ®

Стаж: 4 года 8 месяцев

Сообщений: 97

Симпатии: 4

недоглядел, исправил!))

Создавать темы 07-Дек-2013 18:01

[Профиль]  [ЛС] 

timson1185

Стаж: 4 года 4 месяца

Сообщений: 12

дайте плиз скорости!!!!!!!!!!!!!!!!

Создавать темы 10-Дек-2013 23:57

[Профиль]  [ЛС] 
Показать сообщения:    
Ответить на тему

Текущее время: 19-Ноя 04:29

Часовой пояс: UTC + 5



Вы не можете начинать темы
Вы не можете отвечать на сообщения
Вы не можете редактировать свои сообщения
Вы не можете удалять свои сообщения
Вы не можете голосовать в опросах
Вы не можете прикреплять файлы к сообщениям
Вы не можете скачивать файлы