Никто не выжил / No One Lives (Рюхэй Китамура) [2012 г., триллер, ужасы, ..., HDRip]

Ответить на тему
 

igor1968 ®

Стаж: 5 лет 6 месяцев

Сообщений: 366

Симпатии: 197

Никто не выжил / No One Lives«Everyone Runs. Everyone Hides» Год выпуска: 2012
Страна:
Жанр: триллер, ужасы, ...
Продолжительность: 01:26:22.224
Перевод: Профессиональный (полное дублирование)
Режиссер: Рюхэй Китамура
В ролях: В главных ролях:
Люк Эванс
Эделейд Клеменс
Ли Тергесен
Дерек Магияр
Америка Оливо
Бо Напп
Линдси Шоу
Джордж Мердок
Лаура Рэмси
Гэри Граббс
...
Роли дублировали:
Сергей Смирнов
Лиза Мартиросова
Василий Дахненко
Антон Колесников
Татьяна Шитова
...
Безжалостные преступники спрятали в заброшенном доме двух заложников, юношу и девушку. Однако через некоторое время головорезы находят заложницу мертвой и неожиданно понимают, что юноша не так прост, как казался на первый взгляд. И теперь это он на них охотится…
премьера
8 сентября 2012, ...
премьера
18 апреля 2013, «Каскад»
релиз на DVD
13 июня 2013, «CP Дистрибуция», ...
релиз на Blu-Ray
13 июня 2013, «CP Дистрибуция», ...- -Качество: HDRip
Формат: AVI
Видео кодек: XviD
Аудио кодек: MP3
Видео: 688x288 (2.39:1), 23.976 fps, XviD build 73 ~1066 kbps avg, 0.22 bit/pixel
Аудио: 48 kHz, MPEG Layer 3, 2 ch, ~128.00 kbps avg-

MediaInfo

General
Complete name : No One Lives_usa_HDRip_[scarabey.org].avi
Format : AVI
Format/Info : Audio Video Interleave
File size : 744 MiB
Duration : 1h 26mn
Overall bit rate : 1 204 Kbps
Writing application : VirtualDubMod 1.5.10.3 | www.virtualdub-fr.org || (build 2550/release)
Writing library : VirtualDubMod build 2550/release
Video
ID : 0
Format : MPEG-4 Visual
Format profile : Advanced [email protected]
Format settings, BVOP : Yes
Format settings, QPel : No
Format settings, GMC : No warppoints
Format settings, Matrix : Custom
Codec ID : XVID
Codec ID/Hint : XviD
Duration : 1h 26mn
Bit rate : 1 067 Kbps
Width : 688 pixels
Height : 288 pixels
Display aspect ratio : 2.40:1
Frame rate : 23.976 fps
Color space : YUV
Chroma subsampling : 4:2:0
Bit depth : 8 bits
Scan type : Progressive
Compression mode : Lossy
Bits/(Pixel*Frame) : 0.225
Stream size : 659 MiB (89%)
Writing library : XviD 73
Audio
ID : 1
Format : MPEG Audio
Format version : Version 1
Format profile : Layer 3
Codec ID : 55
Codec ID/Hint : MP3
Duration : 1h 26mn
Bit rate mode : Constant
Bit rate : 128 Kbps
Channel count : 2 channels
Sampling rate : 48.0 KHz
Compression mode : Lossy
Stream size : 79.1 MiB (11%)
Alignment : Aligned on interleaves
Interleave, duration : 42 ms (1.00 video frame)
Interleave, preload duration : 504 ms
Writing library : LAME3.99r
Encoding settings : -m s -V 4 -q 2 -lowpass 17 -b 128
-

Скриншоты

- - -http://mover.uz/watch/gra0ClDu/-

Создавать темы 08-Дек-2013 13:59

[Профиль]  [ЛС] 

vanfank

Стаж: 4 года 4 месяца

Сообщений: 141

Симпатии: 5

стоит смотреть?

Создавать темы 08-Дек-2013 14:32

[Профиль]  [ЛС] 

exist

Стаж: 4 года 4 месяца

Сообщений: 4

стоит смотреть?
неа

Создавать темы 08-Дек-2013 15:57

[Профиль]  [ЛС] 
Показать сообщения:    
Ответить на тему

Текущее время: 20-Сен 10:38

Часовой пояс: UTC + 5



Вы не можете начинать темы
Вы не можете отвечать на сообщения
Вы не можете редактировать свои сообщения
Вы не можете удалять свои сообщения
Вы не можете голосовать в опросах
Вы не можете прикреплять файлы к сообщениям
Вы не можете скачивать файлы