7 ящиков / 7 boxes / 7 cajas (Хуан Карлос Манеглиа, Тана Шембори) [2012 г., боевик, триллер, DVDRip]

Ответить на тему
 

Каротажник ®

Стаж: 4 года 1 месяц

Сообщений: 195

Симпатии: 211

7 ящиков / 7 boxes / 7 cajas


Год выпуска: 2012
Страна: Парагвай


Жанр: боевик, триллер
Продолжительность: 01:40:00


Перевод: Профессиональный (многоголосый)
Режиссер: Хуан Карлос Манеглиа, Тана Шембори


В ролях: Челсо Франко, Лали Гонсалес, Нико Гарсия, Палетита, Маню Портильо, Марио Тоньянес, Нелли Давалос, Роберто Кардозо, Джонни Ким, Луис Гутиеррез

Молодому рассыльному Виктору предлагают очень выгодное предложение, но в то же время очень загадочное. Ему отдают половину 100 долларовой купюры, а после выполнения рассылки обещают отдать вторую. Все лишь Виктору надо доставить 7 странных ящиков. Но наш герой и не мог подумать чем для него окажется эта простая работа, которая для него обернётся настоящей гонкой полной препятствий и опасностей.
Доп. информация: КиноПоиск - рейтинг: 7.800 (19)

Качество: DVDRip
Формат: AVI


Видео кодек: XviD
Аудио кодек: AC3


Видео: 1660 kb/s, 720x384
Аудио: AC3, 256 kb/s (2 ch)

Media Info

E:\Kino\russ\Semj.yashchikov.2012.P.DVDRip.1400Mb.avi
General
Complete name : E:\Kino\russ\Semj.yashchikov.2012.P.DVDRip.1400Mb.avi
Format : AVI
Format/Info : Audio Video Interleave
File size : 1.36 GiB
Duration : 1h 41mn
Overall bit rate : 1 926 Kbps
Writing application : VirtualDubMod 1.5.10.2 (build 2540/release)
Writing library : VirtualDubMod build 2540/release
Video #0
ID : 0
Format : MPEG-4 Visual
Format profile : Advanced [email protected]
Format settings, BVOP : 1
Format settings, QPel : No
Format settings, GMC : No warppoints
Format settings, Matrix : Default (H.263)
Muxing mode : Packed bitstream
Codec ID : XVID
Codec ID/Hint : XviD
Duration : 1h 41mn
Bit rate : 1 660 Kbps
Width : 720 pixels
Height : 384 pixels
Display aspect ratio : 1.85:1
Frame rate : 25.000 fps
Color space : YUV
Chroma subsampling : 4:2:0
Bit depth : 8 bits
Scan type : Progressive
Compression mode : Lossy
Bits/(Pixel*Frame) : 0.240
Stream size : 1.17 GiB (86%)
Writing library : XviD 1.2.1 (UTC 2008-12-04)
Audio #1
ID : 1
Format : AC-3
Format/Info : Audio Coding 3
Mode extension : CM (complete main)
Format settings, Endianness : Big
Codec ID : 2000
Duration : 1h 41mn
Bit rate mode : Constant
Bit rate : 256 Kbps
Channel(s) : 2 channels
Channel positions : Front: L R
Sampling rate : 48.0 KHz
Bit depth : 16 bits
Compression mode : Lossy
Stream size : 185 MiB (13%)
Alignment : Split accross interleaves
Interleave, duration : 40 ms (1.00 video frame)
Interleave, preload duration : 500 ms

Скриншоты


Создавать темы 09-Дек-2013 06:21

[Профиль]  [ЛС] 

Каротажник ®

Стаж: 4 года 1 месяц

Сообщений: 195

Симпатии: 211

раздача завтра проблема с компом

Создавать темы 09-Дек-2013 22:25

[Профиль]  [ЛС] 

Tiar17

Стаж: 6 лет 1 месяц

Сообщений: 83

Симпатии: 5

повтор. http://tas-ix.net/viewtopic.php?t=75360

Создавать темы 10-Дек-2013 22:47

[Профиль]  [ЛС] 

Imperiya

Стаж: 6 лет 7 месяцев

Сообщений: 275

Симпатии: 4

Tiar17, это не повтор медиа инфо разные

Скриншоты

Создавать темы 10-Дек-2013 23:36

[Профиль]  [ЛС] 

Tiar17

Стаж: 6 лет 1 месяц

Сообщений: 83

Симпатии: 5

ok

Создавать темы 13-Дек-2013 12:22

[Профиль]  [ЛС] 

Sergey815815

Стаж: 4 года 3 месяца

Сообщений: 4

Симпатии: 3

Фильм настоятельно рекомендуется к просмотру водителям аравы, они точно будут довольны. Для остальных это шелуха.

Создавать темы 11-Мар-2014 16:56

[Профиль]  [ЛС] 
Показать сообщения:    
Ответить на тему

Текущее время: 19-Ноя 04:15

Часовой пояс: UTC + 5



Вы не можете начинать темы
Вы не можете отвечать на сообщения
Вы не можете редактировать свои сообщения
Вы не можете удалять свои сообщения
Вы не можете голосовать в опросах
Вы не можете прикреплять файлы к сообщениям
Вы не можете скачивать файлы