Всё включено 2 (Эдуард Радзюкевич) [2013 г., комедия, DVDRip]

Ответить на тему
 

igor1968 ®

Стаж: 5 лет 5 месяцев

Сообщений: 366

Симпатии: 197

Всё включено 2«Полный All in» Год выпуска: 2013
Жанр: комедия
Продолжительность: 01:35:10.560
Режиссер: Эдуард Радзюкевич
В ролях: Михаил Беспалов
Федор Добронравов
Роман Мадянов
Сергей Бурунов
Эдуард Радзюкевич
Андрей Кайков
Григорий Сиятвинда
Нонна Гришаева
Карэн Бадалов
Илья Уткин
...
Когда приятель похож на тебя как две капли воды, тут уж грех не поучаствовать в конкурсе двойников и не срубить легкие деньги в доллар-эквиваленте. И разве может помешать то, что ради этого надо лететь в Стамбул накануне собственной свадьбы?! Чтобы доказать будущему тестю-олигарху, что он способен позаботиться о его дочери, Андрей скрывает от невесты истинную цель своего путешествия и улетает в Турцию. Только планам парня не суждено сбыться, когда он встречает в Стамбуле старинных врагов и безумных друзей. И те, и другие превратят турецкий вояж Андрея в сумасшедший калейдоскоп приключений с риском для жизни.- -премьера
3 октября 2013, ...
премьера
3 октября 2013, «Парадиз»
релиз на DVD
9 декабря 2013, «Новый Диск», ...
релиз на Blu-Ray
16 декабря 2013, «Новый Диск», ...
Качество: DVDRip
Формат: AVI
Видео кодек: XviD
Аудио кодек: MPEG Audio
Видео: 688x304 (2.26:1), 25 fps, XviD build 50 ~956 kbps avg, 0.18 bit/pixel
Аудио: 48 kHz, MPEG Layer 3, 2 ch, ~128.00 kbps avg-

MediaInfo

General
Complete name :Vsjo.vkljucheno.II.2013.DVDRip.745Mb.avi
Format : AVI
Format/Info : Audio Video Interleave
File size : 745 MiB
Duration : 1h 35mn
Overall bit rate : 1 095 Kbps
Movie name : Vsjo.vkljucheno.II.2013.DVDRip.745Mb.[torrange.org]
Writing application : VirtualDubMod 1.5.10.2 (build 2540/release)
Copyright : http://torrange.org
Video
ID : 0
Format : MPEG-4 Visual
Format profile : Advanced [email protected]
Format settings, BVOP : Yes
Format settings, QPel : No
Format settings, GMC : No warppoints
Format settings, Matrix : Default (MPEG)
Codec ID : XVID
Codec ID/Hint : XviD
Duration : 1h 35mn
Bit rate : 957 Kbps
Width : 688 pixels
Height : 304 pixels
Display aspect ratio : 2.25:1
Frame rate : 25.000 fps
Color space : YUV
Chroma subsampling : 4:2:0
Bit depth : 8 bits
Scan type : Progressive
Compression mode : Lossy
Bits/(Pixel*Frame) : 0.183
Stream size : 652 MiB (87%)
Writing library : XviD 1.2.1 (UTC 2008-12-04)
Audio
ID : 1
Format : MPEG Audio
Format version : Version 1
Format profile : Layer 3
Codec ID : 55
Codec ID/Hint : MP3
Duration : 1h 35mn
Bit rate mode : Constant
Bit rate : 128 Kbps
Channel count : 2 channels
Sampling rate : 48.0 KHz
Compression mode : Lossy
Stream size : 87.1 MiB (12%)
Alignment : Aligned on interleaves
Interleave, duration : 40 ms (1.00 video frame)
Interleave, preload duration : 504 ms
Writing library : LAMELAME_MAJOR_VERSI
-

Скриншоты

- - -http://mover.uz/watch/fIY0BzDu/-

Создавать темы 09-Дек-2013 15:53

[Профиль]  [ЛС] 

Ринат12

Стаж: 4 года 4 месяца

Сообщений: 7

скорости не ограничивайте вобще не могу скачать

Создавать темы 12-Дек-2013 12:09

[Профиль]  [ЛС] 

Ринат12

Стаж: 4 года 4 месяца

Сообщений: 7

дайте пожалуйста скорости

Создавать темы 12-Дек-2013 21:30

[Профиль]  [ЛС] 

toirchik

Стаж: 4 года 6 месяцев

Сообщений: 33

Симпатии: 2

а почему так мало весит? Камрип что ли?

Создавать темы 12-Дек-2013 22:11

[Профиль]  [ЛС] 

igor1968 ®

Стаж: 5 лет 5 месяцев

Сообщений: 366

Симпатии: 197

а почему так мало весит? Камрип что ли?
в "MI" всё сказано!
Камрип весит максимум 110~130mb

Создавать темы 13-Дек-2013 16:18

[Профиль]  [ЛС] 
Показать сообщения:    
Ответить на тему

Текущее время: 19-Авг 04:51

Часовой пояс: UTC + 5



Вы не можете начинать темы
Вы не можете отвечать на сообщения
Вы не можете редактировать свои сообщения
Вы не можете удалять свои сообщения
Вы не можете голосовать в опросах
Вы не можете прикреплять файлы к сообщениям
Вы не можете скачивать файлы