Аномалия (Юрий Елхов) [1993 г., Фантастика, VHSRip]

Ответить на тему
 

igor1968 ®

Стаж: 5 лет 8 месяцев

Сообщений: 366

Симпатии: 197

Аномалия Год выпуска: 1993
Жанр: Фантастика
Продолжительность: 01:16:06.799
Режиссер: Юрий Елхов
В ролях: Юозас Будрайтис, Александр Филиппенко, Евгений Стеблов, Виктор Балашов, Светлана Панфилова, Ростислав Янковский, Андрей Касянов, Владимир Носик, Марк Рудинштейн, Валерий Прохоров, Владимир Епископосян, Альгимантас Масюлис
По мотивам научно-фантастического романа Клиффорда Саймака «Всякая плоть — трава». В небольшом поселке в последнее время творятся странные вещи, и вскоре он оказывается отрезанным от внешнего мира непреодолимой стеной. Ученый Александр Картин пытается расследовать необычное явление- -Качество: VHSRip
Формат: AVI
Видео кодек: XviD
Аудио кодек: MP3
Видео: 592x448 (1.32:1), 25 fps, XviD build 50 ~1173 kbps avg, 0.18 bit/pixel
Аудио: 48 kHz, MPEG Layer 3, 2 ch, ~99.19 kbps avg-

MediaInfo

General
Complete name : Anomalia.avi
Format : AVI
Format/Info : Audio Video Interleave
File size : 700 MiB
Duration : 1h 16mn
Overall bit rate mode : Variable
Overall bit rate : 1 286 Kbps
Writing application : VirtualDubMod 1.5.4.1 (build 2178/release)
Writing library : VirtualDubMod build 2178/release
Video
ID : 0
Format : MPEG-4 Visual
Format profile : Advanced Simple@L5
Format settings, BVOP : Yes
Format settings, QPel : No
Format settings, GMC : No warppoints
Format settings, Matrix : Custom
Codec ID : XVID
Codec ID/Hint : XviD
Duration : 1h 16mn
Bit rate : 1 174 Kbps
Width : 592 pixels
Height : 448 pixels
Display aspect ratio : 4:3
Frame rate : 25.000 fps
Color space : YUV
Chroma subsampling : 4:2:0
Bit depth : 8 bits
Scan type : Progressive
Compression mode : Lossy
Bits/(Pixel*Frame) : 0.177
Stream size : 639 MiB (91%)
Writing library : XviD 1.2.1 (UTC 2008-12-04)
Audio
ID : 1
Format : MPEG Audio
Format version : Version 1
Format profile : Layer 3
Mode : Joint stereo
Codec ID : 55
Codec ID/Hint : MP3
Duration : 1h 16mn
Bit rate mode : Variable
Bit rate : 99.2 Kbps
Nominal bit rate : 128 Kbps
Channel count : 2 channels
Sampling rate : 48.0 KHz
Compression mode : Lossy
Delay relative to video : 120ms
Stream size : 54.0 MiB (8%)
Alignment : Split accross interleaves
Interleave, duration : 24 ms (0.60 video frame)
Interleave, preload duration : 840 ms
Writing library : LAME3.98r
Encoding settings : -m j -V 4 -q 2 -lowpass 17 --abr 128
Language : English
-

Скриншоты

- - -

Создавать темы 09-Дек-2013 16:41

[Профиль]  [ЛС] 
Показать сообщения:    
Ответить на тему

Текущее время: 22-Ноя 02:29

Часовой пояс: UTC + 5



Вы не можете начинать темы
Вы не можете отвечать на сообщения
Вы не можете редактировать свои сообщения
Вы не можете удалять свои сообщения
Вы не можете голосовать в опросах
Вы не можете прикреплять файлы к сообщениям
Вы не можете скачивать файлы