Нападение на Уолл-стрит / Assault on Wall Street (Уве Болл) [2013 г., боевик, триллер, драма, HDTVRip]

Ответить на тему
 

qi_ip ®

Стаж: 3 года 11 месяцев

Сообщений: 6

Нападение на Уолл-стрит / Assault on Wall Street
Год выпуска: 2013
Страна: Канада
Жанр: боевик, триллер, драма
Продолжительность: 01:29:29
Перевод: Профессиональный (полное дублирование)
Режиссер: Уве Болл
В ролях: Доминик Пёрселл, Джон Хёрд, Эрин Карплак, Локлин Манро, Эдвард Ферлонг, Кит Дэвид, Майк Допуд, Майкл Паре, Тайрон Лейтсо, Эрик Робертс
Описание: История обычного, среднестатистического жителя Нью-Йорка с хорошей работой и счастливой семьей. После того, как наступает экономический кризис, он лишается работы и, будучи в отчаянии, берет оружие и отправляется мстить за свою испорченную жизнь.
Качество: HDTVRip
Формат: AVI
Видео кодек: XviD
Frame width/height: 720x400
Frame rate: 23frames/second
Total bitrate: 1978kbps
Аудио кодек: AC3, 384 кб/сек, 48 kHz,
Каналы: 3F2R/LFE
Аудио дорожки: 1

Скриншоты



Media Info

General
Complete name : C:\Users\Azizjon\Videos\Napadenie.na.Yol.Street.2013.P.HDRip.1400MB.INTERCINEMA.avi
Format : AVI
Format/Info : Audio Video Interleave
File size : 1.37 GiB
Duration : 1h 38mn
Overall bit rate : 1 978 Kbps
Movie name : Napadenie.na.Yol.Street.2013.P.HDRip.1400MB.INTERCINEMA
Director : INTERCINEMA
Genre : Thriller/Drama
Writing application : VirtualDubMod 1.5.10.2 (build 2540/release)
Original source form/Name : Movie
Copyright : http://intercinema.net
Video
ID : 0
Format : MPEG-4 Visual
Format profile : Advanced [email protected]
Format settings, BVOP : Yes
Format settings, QPel : No
Format settings, GMC : No warppoints
Format settings, Matrix : Custom
Codec ID : XVID
Codec ID/Hint : XviD
Duration : 1h 38mn
Bit rate : 1 585 Kbps
Width : 720 pixels
Height : 400 pixels
Display aspect ratio : 16:9
Frame rate : 23.976 fps
Color space : YUV
Chroma subsampling : 4:2:0
Bit depth : 8 bits
Scan type : Progressive
Compression mode : Lossy
Bits/(Pixel*Frame) : 0.230
Stream size : 1.10 GiB (80%)
Writing library : XviD 1.2.1 (UTC 2008-12-04)
Audio
ID : 1
Format : AC-3
Format/Info : Audio Coding 3
Mode extension : CM (complete main)
Format settings, Endianness : Big
Codec ID : 2000
Duration : 1h 38mn
Bit rate mode : Constant
Bit rate : 384 Kbps
Channel count : 6 channels
Channel positions : Front: L C R, Side: L R, LFE
Sampling rate : 48.0 KHz
Bit depth : 16 bits
Compression mode : Lossy
Stream size : 272 MiB (19%)
Alignment : Split accross interleaves
Interleave, duration : 42 ms (1.00 video frame)
Interleave, preload duration : 500 ms


Последний раз редактировалось: qi_ip (2013-12-15 23:11), всего редактировалось 1 раз

Создавать темы 10-Дек-2013 23:48

[Профиль]  [ЛС] 

VAIO

Стаж: 5 лет 10 месяцев

Сообщений: 1568

Симпатии: 1399

Тут есть данный фильм, но название др. и перевод там любительское (одноголосое). Эпоха алчности / Bailout: The Age of Greed (Уве Болл) [2013 г., Драма, Триллер, WEBDLRip] Вообще хороший и серьезный фильм, советую.

Создавать темы 11-Дек-2013 00:00

[Профиль]  [ЛС] 

Grock

Стаж: 6 лет 9 месяцев

Сообщений: 637

Симпатии: 113

qi_ip, Допишите тех.данные фильма, а именно битрейт видео, кол-во дорожек аудио
и добавьте Медиа инфо пожалуйста

Создавать темы 11-Дек-2013 09:14

[Профиль]  [ЛС] 

Tony R.

Стаж: 8 лет 10 месяцев

Сообщений: 132

Симпатии: 20

Режиссер: Уве Болл
Можно и не качать )

Создавать темы 11-Дек-2013 09:56

[Профиль]  [ЛС] 

razor2011

Стаж: 5 лет 2 месяца

Сообщений: 227

Симпатии: 37

Режиссер: Уве Болл
Можно и не качать )
да и описание примитивное

Создавать темы 11-Дек-2013 10:14

[Профиль]  [ЛС] 

The Vault Boy

Стаж: 4 года 6 месяцев

Сообщений: 48

Симпатии: 1

как это не странно, но Уве снял нормальный фильм )

Создавать темы 11-Дек-2013 10:20

[Профиль]  [ЛС] 

vanfank

Стаж: 4 года 6 месяцев

Сообщений: 141

Симпатии: 5

Еще сериал Джон Доу / John Doe

Создавать темы 11-Дек-2013 13:07

[Профиль]  [ЛС] 

Desertboy

Стаж: 7 лет 11 месяцев

Сообщений: 96

Симпатии: 2

Пацан из "Терминатора" (Эдвард Ферлонг) вообще никакущий стал, бухает наверное!

Создавать темы 11-Дек-2013 22:11

[Профиль]  [ЛС] 

qi_ip ®

Стаж: 3 года 11 месяцев

Сообщений: 6

qi_ip, Допишите тех.данные фильма, а именно битрейт видео, кол-во дорожек аудио
и добавьте Медиа инфо пожалуйста
Сегодня вечером допишу, спс за комент

Создавать темы 12-Дек-2013 11:06

[Профиль]  [ЛС] 

so.numb

Стаж: 4 года 1 месяц

Сообщений: 16

уве болл и этим все сказанно. жаль конечно что доминик персел снялся у такого режисера. только имидж себе подпортил

Создавать темы 12-Дек-2013 21:37

[Профиль]  [ЛС] 

vanfank

Стаж: 4 года 6 месяцев

Сообщений: 141

Симпатии: 5

Фильм крутой, а сам смотрел в переводе [den904] - он не уступает ни одному дубляжу!

Создавать темы 27-Дек-2013 20:48

[Профиль]  [ЛС] 

jas81

Стаж: 4 года

Сообщений: 108

Симпатии: 7

концовка проста класс

Создавать темы 03-Янв-2014 18:34

[Профиль]  [ЛС] 

AbiJan

Стаж: 6 лет 5 месяцев

Сообщений: 80

Симпатии: 12

У Уве Болла есть только один фильм, который нужно посмотреть. Ярость (Rampage)/ Остальное все УГ.

Создавать темы 09-Янв-2014 22:30

[Профиль]  [ЛС] 

Homercompany

Стаж: 7 лет 8 месяцев

Сообщений: 234

Симпатии: 7

Вернитесь кто скачал, очень медленно качает !!!

Создавать темы 12-Янв-2014 12:53

[Профиль]  [ЛС] 
Показать сообщения:    
Ответить на тему

Текущее время: 20-Ноя 18:54

Часовой пояс: UTC + 5



Вы не можете начинать темы
Вы не можете отвечать на сообщения
Вы не можете редактировать свои сообщения
Вы не можете удалять свои сообщения
Вы не можете голосовать в опросах
Вы не можете прикреплять файлы к сообщениям
Вы не можете скачивать файлы