Три мушкетера (Сергей Жигунов) [2013 г., Приключения, DVDRip] (Лицензия)

Ответить на тему
 

mansurjon ®

Стаж: 7 лет 7 месяцев

Сообщений: 103

Симпатии: 3

Три мушкетера- Год выпуска: 2013
Страна: Россия
Жанр: Приключения
Продолжительность: 01:58:34
Перевод: Оригинальное [лицензия]-Режиссер: Сергей Жигунов
Сценарий: Сергей Жигунов, Андрей Житков
Продюсер: Игорь Куйда, Сергей Жигунов, Вадим Швец
Оператор: Игорь Кожевников
Композитор: Алексей Шелыгин
Художник: Леонид Карпов, Вера Зелинская, Татьяна Патрахальцева
Монтаж: Николас Трембасьевич-В ролях: Риналь Мухаметов, Юрий Чурсин, Алексей Макаров, Павел Баршак, Екатерина Вилкова, Анна Старшенбаум, Василий Лановой, Филипп Янковский, Константин Лавроненко, Мария Миронова-Описание: «Три мушкетера» — это история о юном гасконце Д’Артаньяне, который, не познав всех радостей любви, оказывается втянут в водоворот политических интриг королевского двора Людовика XIII. В роте королевских мушкетеров Де Тревиля он находит себе верных друзей Атоса, Портоса и Арамиса. Мушкетеры настолько поражены кипучей энергией гасконца и его умением находить неприятности, что принимают самое живое участие не только в многочисленных стычках с гвардейцами кардинала, но и в личной судьбе Д’Артаньяна. Благодаря друзьям Д’Артаньян находит свою первую любовь — Констанцию Бонасье и ввязывается в опаснейшую историю с подвесками Королевы. Тонкий и дальновидный политик кардинал Ришелье и его подручные Рошфор и Миледи обретают в лице Д’Артаньяна опаснейшего врага. Во имя любви он готов на самые отчаянные подвиги. На пути Д’Артаньяна немало опасных соблазнов и искушений. Но он их все преодолеет, не предав своей дружбы и любви!-Рейтинг:  -Качество: DVDRip
Формат: AVI
Видео кодек: XviD
Аудио кодек: AC3
Видео: Xvid 720x400 2020Kbps 25fps
Аудио: Dolby AC3 48000Hz 6ch 448kbps-

МедиаИнфо

General
Complete name : Tri.mushketera.2013.O.DVDRip.2100Mb.avi
Format : AVI
Format/Info : Audio Video Interleave
Format profile : OpenDML
File size : 2.05 GiB
Duration : 1h 58mn
Overall bit rate : 2 481 Kbps
Writing application : VirtualDubMod 1.5.10.3 | www.virtualdub-fr.org || (build 2550/release)
Writing library : VirtualDubMod build 2550/release
Video
ID : 0
Format : MPEG-4 Visual
Format profile : Advanced [email protected]
Format settings, BVOP : 2
Format settings, QPel : No
Format settings, GMC : No warppoints
Format settings, Matrix : Custom
Codec ID : XVID
Codec ID/Hint : XviD
Duration : 1h 58mn
Bit rate : 2 020 Kbps
Width : 720 pixels
Height : 400 pixels
Display aspect ratio : 16:9
Frame rate : 25.000 fps
Color space : YUV
Chroma subsampling : 4:2:0
Bit depth : 8 bits
Scan type : Progressive
Compression mode : Lossy
Bits/(Pixel*Frame) : 0.281
Stream size : 1.67 GiB (81%)
Writing library : XviD 1.2.1 (UTC 2008-12-04)
Audio
ID : 1
Format : AC-3
Format/Info : Audio Coding 3
Mode extension : CM (complete main)
Format settings, Endianness : Big
Codec ID : 2000
Duration : 1h 58mn
Bit rate mode : Constant
Bit rate : 448 Kbps
Channel(s) : 6 channels
Channel positions : Front: L C R, Side: L R, LFE
Sampling rate : 48.0 KHz
Bit depth : 16 bits
Compression mode : Lossy
Stream size : 380 MiB (18%)
Alignment : Split accross interleaves
Interleave, duration : 40 ms (1.00 video frame)
Interleave, preload duration : 500 ms

Скриншоты




Создавать темы 11-Дек-2013 04:03

[Профиль]  [ЛС] 

olim5631

Стаж: 4 года 9 месяцев

Сообщений: 120

Симпатии: 1

Очередной российский трэш, походу

Создавать темы 11-Дек-2013 06:20

[Профиль]  [ЛС] 

dwerty

Стаж: 6 лет 4 месяца

Сообщений: 39

Симпатии: 5

Ржачные коментарии с просторов рунета
Даааааа! у Дартаньяна, зубы отбеленны!!! В сцене дуэли (когда мушкетеры пришли с ним на дуэль)и Дартаньян встает против гвардейцев,он для чего делает кульбит через себя??? вообще убило.Констанция в первый же день пообещала отдаться за подвески которые он вернёт. Дальше я не осилил..
Позор Такому кино.
Тысяча чертей! Шо это за хуанхэ?! =)
госпыди, ну где же придурок жигунов нашел этого кривоногово деревянного молдавана или гастарбайтера на роль д'артаньяна? ужос. а почему у атоса лицо арамиса и наоборот? короче рука-лицо, фейл года. тошнотворней хрени я еще не видел. женщины в этой поделке вообще отдельная тема. Без коробка доброго ганджубаса такое смотреть нельзя.

Создавать темы 16-Дек-2013 23:45

[Профиль]  [ЛС] 

bexa96

Стаж: 6 лет 11 месяцев

Сообщений: 381

Симпатии: 49

Фильм как можно смотреть?

Создавать темы 17-Дек-2013 12:39

[Профиль]  [ЛС] 

alexpru

Стаж: 4 года 5 месяцев

Сообщений: 1

Смотреть эту нарезку невозможно. Это длинный трейлер к сериалу. Вроде и актеры неплохие, но играют здесь ужасно, причем все. Ждем сериал, уже 2 серии в сети, может он улучшит представление о данной экранизации.

Создавать темы 17-Дек-2013 23:45

[Профиль]  [ЛС] 

debokcr

Стаж: 5 лет 5 месяцев

Сообщений: 26

Ух , наредкость идиотский фильм , сравним наверно с фильмом Билет на Вегас >> хотя Вегах будучи байдой несусветной какимто образом окупился в прокате , но мушкетёрам не послано такое везение такчто это фейл - фейл - фейл....

Создавать темы 30-Дек-2013 09:54

[Профиль]  [ЛС] 

e-mile

Стаж: 4 года 6 месяцев

Сообщений: 2

Для комментирующих, до меня кто-нибудь Дюма читал???? Если вопросы есть, то это к автору романа.... Фильм нормальный - смотреть можно.
PS в сравнении приведите лучшую экранизацию романа....

Создавать темы 19-Янв-2014 14:22

[Профиль]  [ЛС] 
Показать сообщения:    
Ответить на тему

Текущее время: 15-Дек 09:43

Часовой пояс: UTC + 5



Вы не можете начинать темы
Вы не можете отвечать на сообщения
Вы не можете редактировать свои сообщения
Вы не можете удалять свои сообщения
Вы не можете голосовать в опросах
Вы не можете прикреплять файлы к сообщениям
Вы не можете скачивать файлы