Небоскреб смерти / Многоэтажка / Tower Block (Джеймс Нанн, Ронни Томпсон / James Nunn, Ronnie Thompson) [2012, Великобритания / Creativity Media, Tea Shop & Film Company, Триллер, HDRip] MVO [лицензия]

Ответить на тему
 

Suxrob89 ®

Стаж: 7 лет 4 месяца

Сообщений: 933

Симпатии: 564

-Небоскреб смерти / Многоэтажка / Tower Block- Страна: Великобритания / Creativity Media, Tea Shop & Film Company
Жанр: Триллер
Год выпуска: 2012
Продолжительность: 01:30:01
Перевод: Профессиональный (многоголосый закадровый) [лицензия]
Cубтитры: нет-Режиссер: Джеймс Нанн, Ронни Томпсон / James Nunn, Ronnie Thompson-В ролях: Шеридан Смит, Джек О’Коннелл, Ральф Браун, Рассел Тови, Джилл Бейкер, Лоуи Бэтли, Стивен Кри, Набил Елухаби, Кристофер Фулфорд, Джули Грэм
Описание: Жители высотки, отданной под снос, ожидают своей очереди на расселение. Люди живут своей привычной жизнью, но вдруг одного за другим начинает отстреливать снайпер. Уцелевшим приходится бороться за свою жизнь, но откуда ждать помощи? И кто этот снайпер, взявший их в заложники?- -Сценарий: Джеймс Моран / James Moran
Продюсер: Джеймс Харрис / James Harris, Марк Лэйн / Mark Lane, Ронни Томпсон / Ronnie Thompson, Патрик Фишер / Patrick Fischer, Кейт Гловер / Kate Glover
Оператор: Бен Моулден / Ben Moulden
Композитор: Оуэн Моррис / Owen Morris
Мировая премьера: 21 августа 2012
Релиз на DVD: 5 декабря 2013, «CP Дистрибуция»-Качество видео: HDRip
Формат видео: AVI
Видео: 720x304 (2.37:1), 24 fps, XviD build 50 ~1860 kbps avg, 0.35 bit/pixel
Аудио: 48 kHz, AC3 Dolby Digital, 3/2 (L,C,R,l,r) + LFE ch, ~448 kbps

MediaInfo

Формат : AVI
Формат/Информация : Audio Video Interleave
Размер файла : 1,46 Гбайт
Продолжительность : 1 ч. 30 м.
Общий поток : 2318 Кбит/сек
Программа кодирования : VirtualDubMod 1.5.10.2 (build 2540/release)
Библиотека кодирования : VirtualDubMod build 2540/release
Видео
Идентификатор : 0
Формат : MPEG-4 Visual
Профиль формата : Advanced [email protected]
Параметр BVOP формата : 2
Параметр QPel формата : Нет
Параметр GMC формата : Без точки перехода
Параметр матрицы формата : Default (MPEG)
Идентификатор кодека : XVID
Идентификатор кодека/Подсказка : XviD
Продолжительность : 1 ч. 30 м.
Битрейт : 1769 Кбит/сек
Ширина : 720 пикселей
Высота : 304 пикселя
Соотношение сторон : 2,35:1
Частота кадров : 24,000 кадра/сек
Цветовое пространство : YUV
Субдискретизация насыщенности : 4:2:0
Битовая глубина : 8 бит
Тип развёртки : Прогрессивная
Метод сжатия : С потерями
Бит/(Пиксели*Кадры) : 0.337
Размер потока : 1,11 Гбайт (76%)
Библиотека кодирования : XviD 1.2.1 (UTC 2008-12-04)
Аудио
Идентификатор : 1
Формат : AC-3
Формат/Информация : Audio Coding 3
Расширение режима : CM (complete main)
Параметр Endianness формата : Big
Идентификатор кодека : 2000
Продолжительность : 1 ч. 30 м.
Вид битрейта : Постоянный
Битрейт : 448 Кбит/сек
Каналы : 6 каналов
Расположение каналов : Front: L C R, Side: L R, LFE
Частота : 48,0 КГц
Битовая глубина : 16 бит
Метод сжатия : С потерями
Размер потока : 288 Мбайт (19%)
Выравнивание : Разделение по промежуткам

Скриншот c названием фильма

Скриншоты

Создавать темы 11-Дек-2013 15:46

[Профиль]  [ЛС] 

bashi

Стаж: 5 лет 9 месяцев

Сообщений: 42

Suxrob89, скорость дайте

Создавать темы 12-Дек-2013 12:17

[Профиль]  [ЛС] 
Показать сообщения:    
Ответить на тему

Текущее время: 15-Дек 09:39

Часовой пояс: UTC + 5



Вы не можете начинать темы
Вы не можете отвечать на сообщения
Вы не можете редактировать свои сообщения
Вы не можете удалять свои сообщения
Вы не можете голосовать в опросах
Вы не можете прикреплять файлы к сообщениям
Вы не можете скачивать файлы