Версия 1.0 / One Point O (Джефф Ренфро, Мартейнн Торссон) [2004 г., ужасы, фантастика, триллер, драма, детектив, ..., DVDRip-AVC]

Ответить на тему
 

igor1968 ®

Стаж: 5 лет 6 месяцев

Сообщений: 366

Симпатии: 197

Версия 1.0 / One Point O«Are you infected?» Год выпуска: 2004
Страна: США, Румыния, Исландия
Жанр: ужасы, фантастика, триллер, драма, детектив, ...
Продолжительность: 01:28:35
Перевод: Профессиональный (двухголосый)(закадровый)
Субтитры: Русские, английские
Режиссер: Джефф Ренфро, Мартейнн Торссон
В ролях: Ричард Риис, Джереми Систо, Удо Кир, Дебора Кара Ангер, Брюс Пэйн, Constantin Florescu, Ана Мария Поупэ, Matt Devlen, Лэнс Хенриксен, Юджин Бёрд
Программист Саймон обнаруживает в своей квартире загадочную посылку. Открыв ее, он становится жертвой зловещего тайного эксперимента. С этого момента в жизни Саймона начинают происходить странные события: им овладевает непреодолимое желание покупать новый продукт — «Натуральное молоко», ему слышатся голоса и, несмотря на все меры предосторожности, в его квартире появляются новые пустые посылки. Загадочная смерть соседей и пугающие галлюцинации подталкивают охваченного паранойей Саймона к пропасти безумия, но в последний момент он узнаёт причину своих кошмаров: он заражен бета-версией электронного вируса «Наномайт 1.0» и есть лишь один рискованный способ победить его…- -премьера
16 марта 2004, ...-Качество: DVDRip-AVC
Формат: MKV
Видео кодек: Другой MPEG4
Аудио кодек: AC3
Видео: 720x400, 1927 kbps, 25fps, 0,268 bit/pixel
Аудио 1: AC3 Dolby Digital, 6Ch/5.1 (L,C,R,l,r) + LFE ch, CBR 448 kbps, 48000Hz (DVO RUS)
Аудио 2: AC3 Dolby Digital, 6Ch/5.1 (L,C,R,l,r) + LFE ch, CBR 448 kbps, 48000Hz (ENG)-

MediaInfo

General
Unique ID : 178554715310477759138941603881917144852 (0x865463259EF0763C9D8D2CC7DA14DF14)
Complete name : One Point 0_AVC-DVD-Rip\One Point 0.mkv
Format : Matroska
Format version : Version 2
File size : 1.75 GiB
Duration : 1h 28mn
Overall bit rate : 2 824 Kbps
Encoded date : UTC 2012-02-03 01:36:45
Writing application : mkvmerge v2.9.7 ('Tenderness') built on Jul 1 2009 18:43:35
Writing library : libebml v0.7.7 + libmatroska v0.8.1
Video
ID : 1
Format : AVC
Format/Info : Advanced Video Codec
Format profile : [email protected]
Format settings, CABAC : Yes
Format settings, ReFrames : 4 frames
Codec ID : V_MPEG4/ISO/AVC
Duration : 1h 28mn
Bit rate : 1 927 Kbps
Width : 720 pixels
Height : 400 pixels
Display aspect ratio : 16:9
Frame rate mode : Constant
Frame rate : 25.000 fps
Color space : YUV
Chroma subsampling : 4:2:0
Bit depth : 8 bits
Scan type : Progressive
Bits/(Pixel*Frame) : 0.268
Stream size : 1.16 GiB (66%)
Title : 'One Point 0'_ripped by Romych
Writing library : x264 core 116 r2074 2641b9e
Encoding settings : cabac=1 / ref=4 / deblock=1:-1:-1 / analyse=0x3:0x113 / me=umh / subme=6 / psy=1 / psy_rd=1.00:0.00 / mixed_ref=1 / me_range=16 / chroma_me=1 / trellis=2 / 8x8dct=1 / cqm=0 / deadzone=21,11 / fast_pskip=1 / chroma_qp_offset=-2 / threads=3 / sliced_threads=0 / nr=0 / decimate=1 / interlaced=0 / bluray_compat=0 / constrained_intra=0 / bframes=3 / b_pyramid=2 / b_adapt=2 / b_bias=0 / direct=3 / weightb=1 / open_gop=0 / weightp=2 / keyint=250 / keyint_min=25 / scenecut=40 / intra_refresh=0 / rc_lookahead=40 / rc=2pass / mbtree=0 / bitrate=1927 / ratetol=1.0 / qcomp=0.60 / qpmin=10 / qpmax=51 / qpstep=4 / cplxblur=20.0 / qblur=0.5 / vbv_maxrate=50000 / vbv_bufsize=50000 / nal_hrd=none / ip_ratio=1.40 / pb_ratio=1.30 / aq=1:1.00
Language : English
Default : Yes
Forced : No
Audio #1
ID : 2
Format : AC-3
Format/Info : Audio Coding 3
Mode extension : CM (complete main)
Format settings, Endianness : Big
Codec ID : A_AC3
Duration : 1h 28mn
Bit rate mode : Constant
Bit rate : 448 Kbps
Channel count : 6 channels
Channel positions : Front: L C R, Side: L R, LFE
Sampling rate : 48.0 KHz
Bit depth : 16 bits
Compression mode : Lossy
Stream size : 284 MiB (16%)
Title : DVO 'R5'
Language : Russian
Default : Yes
Forced : No
Audio #2
ID : 3
Format : AC-3
Format/Info : Audio Coding 3
Mode extension : CM (complete main)
Format settings, Endianness : Big
Codec ID : A_AC3
Duration : 1h 28mn
Bit rate mode : Constant
Bit rate : 448 Kbps
Channel count : 6 channels
Channel positions : Front: L C R, Side: L R, LFE
Sampling rate : 48.0 KHz
Bit depth : 16 bits
Compression mode : Lossy
Stream size : 284 MiB (16%)
Title : Original
Language : English
Default : No
Forced : No

-

Скриншоты

- - -http://mover.uz/watch/xzbzXNDu/-


Последний раз редактировалось: igor1968 (2013-12-12 14:18), всего редактировалось 2 раз(а)

Создавать темы 12-Дек-2013 02:16

[Профиль]  [ЛС] 
Показать сообщения:    
Ответить на тему

Текущее время: 21-Сен 02:51

Часовой пояс: UTC + 5



Вы не можете начинать темы
Вы не можете отвечать на сообщения
Вы не можете редактировать свои сообщения
Вы не можете удалять свои сообщения
Вы не можете голосовать в опросах
Вы не можете прикреплять файлы к сообщениям
Вы не можете скачивать файлы