В финале Джон умрет / John Dies at the End (Дон Коскарелли) [2012 г., ужасы, фантастика, фэнтези, комедия, BDRip] MVO + Original (Eng) + Subs (Rus, Eng)

Ответить на тему
 

Каротажник ®

Стаж: 3 года 10 месяцев

Сообщений: 195

Симпатии: 211

В финале Джон умрет / John Dies at the End


Год выпуска: 2012
Страна: США
Жанр: ужасы, фантастика, фэнтези, комедия
Продолжительность: 01:39:02
Перевод: Любительский многоголосый закадровый - Iron Sound + Любительский одноголосyый закадровый - acolith
Режиссер: Дон Коскарелли

Чейз Уильямсон, Роб Майес, Пол Джаматти, Клэнси Браун, Глинн Тёрмен, Даг Джонс, Дэниэл Робак, Фаббианн Терез, Джонни Уэстон, Джимми Вонг

Жизнь мирного, благополучного городка на среднем западе внезапно прервалась цепью странных и необъяснимых событий. Некоторые из жителей вдруг для всех стали совершать странные поступки. Давние друзья, Джон и Дейв, не ожидали в своей молодой, весёлой жизни никаких перемен. Но изменения наступили сами собой. Это произошло после того, как друзья попробовали совершенно новый, невиданный до сих пор наркотик, именуемый «соевый соус». Его воздействие на людей неповторимо. Многие не просто получают удовольствие, но и приобретают новые, необычные способности. Некоторые видят существ, которых не существуют. Есть и такие, кто видит будущее так ясно, как будто уже находится в нём. Но не всё так гладко. Есть и побочные эффекты. И они наступают после того, как прекращается действие препарата. Как оказалось, далеко не все после приёма этого чудо-средства могут опять стать обычными людьми. И бывшие друзья, и соседи начинают неумолимо терять человеческий облик, становясь пособниками немыслимого зла. При этом друзьям становится известно, что в финале Джон умрёт. Будет ли успешной попытка друзей остановить охватившее город безумие и попытаться выжить в этой неразберихе?
Доп. информация: КиноПоиск - рейтинг: 6.532 (2095)

Качество: BDRip
Формат: AVI
Видео кодек: XviD
Аудио кодек: AC3Видео: 720x400 (16:9), 23.976 fps, XviD MPEG-4 ~1777 kbps avg, 0.257 bit/pixelАудио 1: 48 kHz, AC3 Dolby Digital, 3/2 (L,C,R,l,r) + LFE ch, ~448 kbps - Любительский (одноголосый закадровый) acolith
Аудио 2: 48 kHz, AC3 Dolby Digital, 3/2 (L,C,R,l,r) + LFE ch, ~448 kbps - Любительский (многоголосый закадровый) Iron Sound
Аудио 3: 48 kHz, AC3 Dolby Digital, 6 ch, ~448.00 kbps avg - Оригинал (Английский)
Субтитры: Русские, Английские / внешние

Media Info

E:\Kino\russ\John.Dies.at.the.End.2012.BDRip\John Dies at the End.2012.BDRip.avi
General
Complete name : E:\Kino\russ\John.Dies.at.the.End.2012.BDRip\John Dies at the End.2012.BDRip.avi
Format : AVI
Format/Info : Audio Video Interleave
Format profile : OpenDML
File size : 2.19 GiB
Duration : 1h 39mn
Overall bit rate : 3 145 Kbps
Movie name : John Dies at the End.2012.BDRip
Director : rip by maygli
Writing application : VirtualDubModRus 1.5.10.2 (build 2542/release)
Copyright : www.starbit.org (RG Rulya74)
Video #0
ID : 0
Format : MPEG-4 Visual
Format profile : Advanced [email protected]
Format settings, BVOP : 1
Format settings, QPel : No
Format settings, GMC : No warppoints
Format settings, Matrix : Custom
Muxing mode : Packed bitstream
Codec ID : XVID
Codec ID/Hint : XviD
Duration : 1h 39mn
Bit rate : 1 777 Kbps
Width : 720 pixels
Height : 400 pixels
Display aspect ratio : 16:9
Frame rate : 23.976 fps
Color space : YUV
Chroma subsampling : 4:2:0
Bit depth : 8 bits
Scan type : Progressive
Compression mode : Lossy
Bits/(Pixel*Frame) : 0.257
Stream size : 1.24 GiB (57%)
Writing library : XviD 65
Audio #1
ID : 1
Format : AC-3
Format/Info : Audio Coding 3
Mode extension : CM (complete main)
Format settings, Endianness : Big
Codec ID : 2000
Duration : 1h 39mn
Bit rate mode : Constant
Bit rate : 448 Kbps
Channel(s) : 6 channels
Channel positions : Front: L C R, Side: L R, LFE
Sampling rate : 48.0 KHz
Bit depth : 16 bits
Compression mode : Lossy
Stream size : 319 MiB (14%)
Alignment : Split accross interleaves
Interleave, duration : 42 ms (1.00 video frame)
Interleave, preload duration : 500 ms
Title : Авторский (одноголосый закадровый) А. Карповский
Audio #2
ID : 2
Format : AC-3
Format/Info : Audio Coding 3
Mode extension : CM (complete main)
Format settings, Endianness : Big
Codec ID : 2000
Duration : 1h 39mn
Bit rate mode : Constant
Bit rate : 448 Kbps
Channel(s) : 6 channels
Channel positions : Front: L C R, Side: L R, LFE
Sampling rate : 48.0 KHz
Bit depth : 16 bits
Compression mode : Lossy
Stream size : 319 MiB (14%)
Alignment : Split accross interleaves
Interleave, duration : 42 ms (1.00 video frame)
Interleave, preload duration : 500 ms
Title : Любительский (многоголосый закадровый) Iron Sound
Audio #3
ID : 3
Format : AC-3
Format/Info : Audio Coding 3
Mode extension : CM (complete main)
Format settings, Endianness : Big
Codec ID : 2000
Duration : 1h 39mn
Bit rate mode : Constant
Bit rate : 448 Kbps
Channel(s) : 6 channels
Channel positions : Front: L C R, Side: L R, LFE
Sampling rate : 48.0 KHz
Bit depth : 16 bits
Compression mode : Lossy
Stream size : 319 MiB (14%)
Alignment : Split accross interleaves
Interleave, duration : 42 ms (1.00 video frame)
Interleave, preload duration : 500 ms
Title : Оригинал (Английский)

Скриншоты


Создавать темы 13-Дек-2013 06:25

[Профиль]  [ЛС] 

vanfank

Стаж: 4 года 3 месяца

Сообщений: 141

Симпатии: 5

Походу ТВ3!

Создавать темы 13-Дек-2013 14:49

[Профиль]  [ЛС] 

mercury

Стаж: 5 лет 1 месяц

Сообщений: 48

Симпатии: 1

Походу ТВ3!
и что с таго?

Создавать темы 13-Дек-2013 16:13

[Профиль]  [ЛС] 

Alex Dancer

Стаж: 5 лет 7 месяцев

Сообщений: 181

Симпатии: 21

Походу ТВ3!
Ошибаетесь!!!
Рейтинг на кинопоиске 6.536 2726
IMDb: 6.40 (17 808), а фильмы ТВ3 имеют рейтинг от 4 и ниже.
По рецензиям фильм тоже вполне себе хороший. Был бы дубляж или хотя бы профессиональный закадровый, то я бы скачал с удовольствием.

Создавать темы 13-Дек-2013 18:45

[Профиль]  [ЛС] 
Показать сообщения:    
Ответить на тему

Текущее время: 24-Авг 10:04

Часовой пояс: UTC + 5



Вы не можете начинать темы
Вы не можете отвечать на сообщения
Вы не можете редактировать свои сообщения
Вы не можете удалять свои сообщения
Вы не можете голосовать в опросах
Вы не можете прикреплять файлы к сообщениям
Вы не можете скачивать файлы