Ромео и Джульетта / Romeo and Juliet (Карло Карлей / Carlo Carlei) [2013, Великобритания, Италия, Швейцария, Драма, мелодрама, WEB-DLRip] [iTunes / лицензия]

Страницы :  1, 2  След.

Ответить на тему
 

Suxrob89 ®

Стаж: 7 лет 1 месяц

Сообщений: 933

Симпатии: 564

-Ромео и Джульетта / Romeo and Juliet- Страна: Великобритания, Италия, Швейцария, Amber Entertainment, Echo Lake Productions (I), Indiana Productio
Жанр: Драма, мелодрама
Год выпуска: 2013
Продолжительность: 01:53:25
Перевод: Профессиональный (дублированный) [iTunes / лицензия]
Cубтитры: нет-Режиссер: Карло Карлей / Carlo Carlei-В ролях: Дуглас Бут, Хейли Стайнфелд, Дэмиэн Льюис, Коди Смит-МакФи, Эд Вествик, Пол Джаматти, Томас Арана, Наташа МакЭлхоун, Стеллан Скарсгард, Лесли Мэнвилл-Описание: Верона. Эпоха Раннего Возрождения. Юноша и девушка из враждующих семей влюбляются друг в друга. Рок не дает им быть вместе. Лишь смерть на пике запретной страсти помогает Ромео и Джульетте спасти свою любовь.- -Качество видео: WEB-DLRip
Формат видео: AVI
Видео: 720x304 (2.37:1), 25 fps, XviD build 50 ~1445 kbps avg, 0.26 bit/pixel
Аудио: 48 kHz, AC3 Dolby Digital, 3/2 (L,C,R,l,r) + LFE ch, ~384 kbps

MediaInfo

Формат : AVI
Формат/Информация : Audio Video Interleave
Размер файла : 1,46 Гбайт
Продолжительность : 1 ч. 53 м.
Общий поток : 1839 Кбит/сек
Программа кодирования : VirtualDubMod 1.5.10.2 (build 2540/release)
Библиотека кодирования : VirtualDubMod build 2540/release
Видео
Идентификатор : 0
Формат : MPEG-4 Visual
Профиль формата : Advanced [email protected]
Параметр BVOP формата : 2
Параметр QPel формата : Нет
Параметр GMC формата : Без точки перехода
Параметр матрицы формата : Выборочная
Идентификатор кодека : XVID
Идентификатор кодека/Подсказка : XviD
Продолжительность : 1 ч. 53 м.
Битрейт : 1446 Кбит/сек
Ширина : 720 пикселей
Высота : 304 пикселя
Соотношение сторон : 2,35:1
Частота кадров : 25,000 кадров/сек
Цветовое пространство : YUV
Субдискретизация насыщенности : 4:2:0
Битовая глубина : 8 бит
Тип развёртки : Прогрессивная
Метод сжатия : С потерями
Бит/(Пиксели*Кадры) : 0.264
Размер потока : 1,15 Гбайт (79%)
Библиотека кодирования : XviD 1.2.1 (UTC 2008-12-04)
Аудио
Идентификатор : 1
Формат : AC-3
Формат/Информация : Audio Coding 3
Расширение режима : CM (complete main)
Параметр Endianness формата : Big
Идентификатор кодека : 2000
Продолжительность : 1 ч. 53 м.
Вид битрейта : Постоянный
Битрейт : 384 Кбит/сек
Каналы : 6 каналов
Расположение каналов : Front: L C R, Side: L R, LFE
Частота : 48,0 КГц
Битовая глубина : 16 бит
Метод сжатия : С потерями
Размер потока : 312 Мбайт (21%)
Выравнивание : Разделение по промежуткам
Продолжительность промежутка : 40 мс. (1,00 видеокадр)
Время предзагрузки промежутка : 500 мс.

Скриншот c названием фильма

Скриншоты

Создавать темы 13-Дек-2013 11:41

[Профиль]  [ЛС] 

razor2011

Стаж: 5 лет

Сообщений: 227

Симпатии: 37

как фильм?

Создавать темы 13-Дек-2013 13:53

[Профиль]  [ЛС] 

t1man

Стаж: 4 года 11 месяцев

Сообщений: 75

Продолжитель
как тупо но люди еще не успели посмотреть фильм! начали скачивать но только до 20%

Создавать темы 13-Дек-2013 17:07

[Профиль]  [ЛС] 

Dava2112

Стаж: 5 лет 8 месяцев

Сообщений: 15

Раздачу дайте

Создавать темы 13-Дек-2013 20:46

[Профиль]  [ЛС] 

Dava2112

Стаж: 5 лет 8 месяцев

Сообщений: 15

Народ

Создавать темы 13-Дек-2013 21:12

[Профиль]  [ЛС] 

Dava2112

Стаж: 5 лет 8 месяцев

Сообщений: 15

Дайте раздачу АААААААААААААААААААААААААААА уже 4 дня качаю!!!!!!!

Создавать темы 15-Дек-2013 12:55

[Профиль]  [ЛС] 

Dava2112

Стаж: 5 лет 8 месяцев

Сообщений: 15

Suxrob89, Дай раздачу !! уже 4 дня качаю!!!!!!!

Создавать темы 15-Дек-2013 13:06

[Профиль]  [ЛС] 

salom

Стаж: 5 лет 8 месяцев

Сообщений: 15

Suxrob89, Дай раздачу !! уже 4 дня качаю!!!!!!!
Как можешь качать 4 дня, если файл залили 13 го? И еще, ищи проблему у себя, кроме тебя все скачали, смотри сколько раз скачан файл...

Создавать темы 15-Дек-2013 17:12

[Профиль]  [ЛС] 

salom

Стаж: 5 лет 8 месяцев

Сообщений: 15

Оригинал, т.е. старый вариант лучше и интереснее этого.

Создавать темы 15-Дек-2013 20:21

[Профиль]  [ЛС] 

t1man

Стаж: 4 года 11 месяцев

Сообщений: 75

Фильм отличный хотя с [спам] скачал теперь с тас икса помогу с раздачей ребят это отличный переиздание надо это посмотреть объзательно!

Создавать темы 15-Дек-2013 22:03

[Профиль]  [ЛС] 

kricker13

Стаж: 6 лет 8 месяцев

Сообщений: 29

Симпатии: 6

фильм просто ВЗРЫВ

Создавать темы 21-Дек-2013 23:20

[Профиль]  [ЛС] 

YULYA_TWILIGHT

Стаж: 5 лет 8 месяцев

Сообщений: 3

Джульетта красивая только в фильме 1968г

Создавать темы 24-Дек-2013 18:56

[Профиль]  [ЛС] 

Nightout1

Стаж: 4 года 10 месяцев

Сообщений: 30

Симпатии: 3

Джульетта красивая только в фильме 1968г
+
согласно

Создавать темы 27-Дек-2013 13:40

[Профиль]  [ЛС] 

mamir

Стаж: 4 года 6 месяцев

Сообщений: 6

Джульетта красивая только в фильме 1968г
+
согласно
а здесь Ромео красивее чем Джульетта

Создавать темы 27-Дек-2013 22:28

[Профиль]  [ЛС] 

stefan17

Стаж: 4 года 3 месяца

Сообщений: 30

Итак ребята стоит смотреть фильм? судя по постеру этот фильм в совр. образе?

Создавать темы 08-Янв-2014 01:40

[Профиль]  [ЛС] 
Показать сообщения:    
Ответить на тему

Текущее время: 27-Сен 03:42

Часовой пояс: UTC + 5



Вы не можете начинать темы
Вы не можете отвечать на сообщения
Вы не можете редактировать свои сообщения
Вы не можете удалять свои сообщения
Вы не можете голосовать в опросах
Вы не можете прикреплять файлы к сообщениям
Вы не можете скачивать файлы