Малавита / The Family (Люк Бессон / Luc Besson) [2013, США, Франция, Криминал, комедия, боевик, BDRip-AVC] 720p

Ответить на тему
 

GIGABYTE158 ®

Стаж: 5 лет 3 месяца

Сообщений: 71

Симпатии: 13

--«Некоторые называют их организованной преступной группировкой. Другие – семьей»-- год :2013
страна :США, Франция
жанр :криминал, комедия, боевик, ...
режиссер :Люк Бессон
Перевод : Профессиональный (полное дублирование)
Продолжительность:01:46:57--В главных ролях :Роберт Де Ниро, Мишель Пфайффер, Томми Ли Джонс, Дианна Агрон, Джон Д’Лео, Джон Фреда, Джимми Палумбо, Доменик Ломбардоззи, Стэн Карп, Винсент Пасторе--сценарий :Люк Бессон, Майкл Калео, Тонино Бенаквиста
продюсер :Райан Кэвэна, Виржини Силла, Люк Бессон, ...
оператор :Тьерри Арбогаст
композитор :Евгений Гальперин, Саша Гальперин
художник :Юг Тиссандье, Жиль Буалло, Эрик Дин, ...
монтаж :Жюльен Рей--Описание--Что вы знаете о своих соседях? Особенно о тех, которые заявляются среди ночи… Так,
однажды на тихой улочке провинциального французского городка поселился писатель по фамилии Блейк,
со своим семейством и собакой Малавитой. На этом многовековое спокойствие города закончилось. Почему сгорел местный супермаркет?
Чем рискует медлительный водопроводчик? Что лежит в рюкзаке у милого парня в бежевых бриджах?
Кто бы мог представить, что на самом деле мистер Блейк — бывший глава мафии, которого власти прячут здесь от преследования.
И вот в городок приезжают люди «Коза Ностры»…--Дополнительная информация -- --бюджет :$30 000 000
сборы в США :$36 870 036
сборы в России :$6 286 797--зрители : 916.8 тыс., 894.6 тыс., 273.8 тыс., ...
премьера (мир):1 мая 2013, ...
премьера (РФ) :19 сентября 2013, «Парадиз»
релиз на DVD :19 ноября 2013, «Парадиз / Активижен», ...
релиз на Blu-Ray:3 декабря 2013, «Парадиз / Активижен», ...
возраст: зрителям, достигшим 16 лет
рейтинг MPAA: лицам до 17 лет обязательно присутствие взрослого--Качество: BDRip 720p
Формат: MKV
Видео кодек: V_MPEG4/ISO/AVC
Аудио кодек: A_DTS
Видео:1280x536, -25 fps, - 5 200 Kbps
Аудио: 48 kHz, -6 channels, -1 509 Kbps--Трейлер--

MI

F:\кино\боевик\Malavita.2013.D.BDRip.720p.mkv
   General
      Unique ID : 224589713609446252522709816816209324014 (0xA8F667CC801ACEA89C93BC0D4F2967EE)
      Complete name : F:\кино\боевик\Malavita.2013.D.BDRip.720p.mkv
      Format : Matroska
      Format version : Version 2
      File size : 5.01 GiB
      Duration : 1h 46mn
      Overall bit rate : 6 711 Kbps
      Encoded date : UTC 2013-12-01 13:24:40
      Writing application : mkvmerge v6.1.0 ('Old Devil') built on Mar  4 2013 09:10:42
      Writing library : libebml v1.3.0 + libmatroska v1.4.0
   Video #1
      ID : 1
      Format : AVC
      Format/Info : Advanced Video Codec
      Format profile : [email protected]
      Format settings, CABAC : Yes
      Format settings, ReFrames : 4 frames
      Codec ID : V_MPEG4/ISO/AVC
      Duration : 1h 46mn
      Bit rate : 5 200 Kbps
      Width : 1 280 pixels
      Height : 536 pixels
      Display aspect ratio : 2.40:1
      Frame rate mode : Constant
      Frame rate : 25.000 fps
      Color space : YUV
      Chroma subsampling : 4:2:0
      Bit depth : 8 bits
      Scan type : Progressive
      Bits/(Pixel*Frame) : 0.303
      Stream size : 3.79 GiB (76%)
      Writing library : x264 core 130 r2273 b3065e6
      Encoding settings : cabac=1 / ref=1 / deblock=1:-1:-1 / analyse=0x3:0x113 / me=hex / subme=2 / psy=1 / psy_rd=1.00:0.10 / mixed_ref=0 / me_range=16 / chroma_me=1 / trellis=0 / 8x8dct=1 / cqm=0 / deadzone=21,11 / fast_pskip=1 / chroma_qp_offset=0 / threads=18 / lookahead_threads=4 / sliced_threads=0 / nr=0 / decimate=1 / interlaced=0 / bluray_compat=0 / constrained_intra=0 / bframes=3 / b_pyramid=2 / b_adapt=1 / b_bias=0 / direct=3 / weightb=1 / open_gop=0 / weightp=1 / keyint=250 / keyint_min=25 / scenecut=40 / intra_refresh=0 / rc_lookahead=10 / rc=2pass / mbtree=1 / bitrate=5200 / ratetol=1.0 / qcomp=0.60 / qpmin=0 / qpmax=69 / qpstep=4 / cplxblur=20.0 / qblur=0.5 / ip_ratio=1.40 / aq=1:1.00
      Default : Yes
      Forced : No
   Audio #2
      ID : 2
      Format : DTS
      Format/Info : Digital Theater Systems
      Mode : 16
      Format settings, Endianness : Big
      Codec ID : A_DTS
      Duration : 1h 46mn
      Bit rate mode : Constant
      Bit rate : 1 509 Kbps
      Channel(s) : 6 channels
      Channel positions : Front: L C R, Side: L R, LFE
      Sampling rate : 48.0 KHz
      Bit depth : 24 bits
      Compression mode : Lossy
      Stream size : 1.13 GiB (22%)
      Default : Yes
      Forced : No

Скриншоты

Создавать темы 13-Дек-2013 14:31

[Профиль]  [ЛС] 

GIGABYTE158 ®

Стаж: 5 лет 3 месяца

Сообщений: 71

Симпатии: 13

добавьте меня в пиры
213.230.93.51:17526
213.230.101.79:33529
[2001:0:9d38:6abd:2835:150e:2a19:a9f8]:33529
213.230.92.220:17526
213.230.95.61:38368

Создавать темы 13-Дек-2013 19:37

[Профиль]  [ЛС] 

Топик был перенесен из форума HD-AVC в форум Зарубежное кино

ziyod

Создавать темы 19-Дек-2013 06:29

 
Показать сообщения:    
Ответить на тему

Текущее время: 26-Сен 20:45

Часовой пояс: UTC + 5



Вы не можете начинать темы
Вы не можете отвечать на сообщения
Вы не можете редактировать свои сообщения
Вы не можете удалять свои сообщения
Вы не можете голосовать в опросах
Вы не можете прикреплять файлы к сообщениям
Вы не можете скачивать файлы