Холодное сердце / Frozen (Крис Бак / Chris Buck, Дженнифер Ли / Jennifer Lee) [2013, мультфильм, фэнтези, комедия, приключения, семейны, HDRip] [Лицензия]

Ответить на тему
 

Suxrob89 ®

Стаж: 7 лет 3 месяца

Сообщений: 933

Симпатии: 564

- -Холодное сердце / Frozen- Страна: США / Walt Disney Animation Studios, Walt Disney Picturesa
Жанр: мультфильм, фэнтези, комедия, приключения, семейны
Продолжительность: 01:42:13
Год выпуска: 2013
Перевод: Дублированное [Лицензия]
Русские субтитры: нет-Режиссёр: Крис Бак / Chris Buck, Дженнифер Ли / Jennifer Lee-Роли озвучивали: Кристен Белл, Идина Мензел, Джонатан Грофф, Джош Гад, Сантино Фонтана, Алан Тьюдик, Киаран Хайндс, Крис Уильямс, Стивен Дж. Андерсон, Майа Уилсон-Описание: Когда древнее предсказание сбывается и королевство погружается в объятия вечной зимы, трое бесстрашных героев — принцесса Анна, отважный Кристофф и его верный олень Свен — отправляются в горы, чтобы найти сестру Анны, Эльзу, которая может снять со страны леденящее заклятие. По пути их ждет множество увлекательных сюрпризов и захватывающих приключений: встреча с мистическими троллями, знакомство с очаровательным снеговиком по имени Олаф, горные вершины покруче Эвереста и магия в каждой снежинке. Анне и Кристоффу предстоит сплотиться и противостоять могучей стихии, чтобы спасти королевство и тех, кто им дорог…- -Качество: HDRip
Формат: MKV
Видео: XviD, 1608 Кбит/с, 720x320
Аудио: AC3, 6 ch, 448 Кбит/с
Субтитры: отсутствуют

Подробные технические данные

E:\Frozen.2013.D.HDRip.mkv
   General
      Unique ID : 172672272004030388813921394615785176031 (0x81E7784CCB70DE5BB531B2A5F4E93BDF)
      Complete name : E:\Frozen.2013.D.HDRip.mkv
      Format : Matroska
      Format version : Version 4 / Version 2
      File size : 1.50 GiB
      Duration : 1h 42mn
      Overall bit rate : 2 097 Kbps
      Encoded date : UTC 2014-03-18 03:40:45
      Writing application : mkvmerge v6.3.0 ('You can't stop me!') built on Jun 28 2013 20:09:41
      Writing library : libebml v1.3.0 + libmatroska v1.4.0
   Video #1
      ID : 1
      Format : MPEG-4 Visual
      Format profile : Advanced [email protected]
      Format settings, BVOP : Yes
      Format settings, QPel : No
      Format settings, GMC : No warppoints
      Format settings, Matrix : Custom
      Codec ID : V_MS/VFW/FOURCC / XVID
      Codec ID/Hint : XviD
      Duration : 1h 42mn
      Bit rate : 1 608 Kbps
      Width : 720 pixels
      Height : 320 pixels
      Display aspect ratio : 2.25:1
      Frame rate mode : Constant
      Frame rate : 23.976 fps
      Color space : YUV
      Chroma subsampling : 4:2:0
      Bit depth : 8 bits
      Scan type : Progressive
      Compression mode : Lossy
      Bits/(Pixel*Frame) : 0.291
      Stream size : 1.15 GiB (77%)
      Writing library : XviD 1.2.1 (UTC 2008-12-04)
      Default : Yes
      Forced : No
   Audio #2
      ID : 2
      Format : AC-3
      Format/Info : Audio Coding 3
      Mode extension : CM (complete main)
      Format settings, Endianness : Big
      Codec ID : A_AC3
      Duration : 1h 42mn
      Bit rate mode : Constant
      Bit rate : 448 Kbps
      Channel(s) : 6 channels
      Channel positions : Front: L C R, Side: L R, LFE
      Sampling rate : 48.0 KHz
      Bit depth : 16 bits
      Compression mode : Lossy
      Stream size : 328 MiB (21%)
      Default : Yes
      Forced : No

Скриншоты







Последний раз редактировалось: Suxrob89 (2017-02-23 12:19), всего редактировалось 7 раз(а)

Создавать темы 13-Дек-2013 18:47

[Профиль]  [ЛС] 

master-tx

Стаж: 6 лет 9 месяцев

Сообщений: 13

Сегодня посмотрел в Мегапланете в 3D. Потратился на 30 тысяч и не пожалел. Это редкий шедевр, за который стоит честно заплатить создателям. Особо рекомендую к просмотру с детьми и в кинотеатре в эти предновогодние дни. Всех с наступающим!

Создавать темы 25-Дек-2013 16:51

[Профиль]  [ЛС] 

t1man

Стаж: 5 лет 1 месяц

Сообщений: 75

наконец дождался этого мульта!!!!

Создавать темы 07-Янв-2014 16:47

[Профиль]  [ЛС] 

AbiJan

Стаж: 6 лет 5 месяцев

Сообщений: 80

Симпатии: 12

Посмотрел дома с братишками... Они были в восторге. Скажу одно. И мне фильм очень понравился. До последнего интрига сохраняется, что не свойственно для мультфильмов. Стоит посмотреть, не пожалеете.
Ставлю 10 из 10.
Качество изображения отличное, смотрел в LED 47'' и поверьте качество стоит просмотра. Что касается звука, то она приемлемая, даже едва слышные закадровые смешки не мешают.

Создавать темы 15-Янв-2014 21:55

[Профиль]  [ЛС] 

Nemo

Стаж: 6 лет 10 месяцев

Сообщений: 74

Симпатии: 4

Кто-нибудь сможет вытащить аудио дорожку?

Создавать темы 19-Мар-2014 11:34

[Профиль]  [ЛС] 

mivat

Стаж: 5 лет 1 месяц

Сообщений: 27

Симпатии: 9

есть оригинальная звуковая дорожка?

Создавать темы 23-Мар-2014 00:56

[Профиль]  [ЛС] 

Nemo

Стаж: 6 лет 10 месяцев

Сообщений: 74

Симпатии: 4

У меня есть. На какой ФО залить?

Создавать темы 23-Мар-2014 09:26

[Профиль]  [ЛС] 

Kakcam

Стаж: 6 лет 11 месяцев

Сообщений: 137

Симпатии: 7

nnm. uz

Создавать темы 07-Июн-2014 19:23

[Профиль]  [ЛС] 

Temur_1993

Стаж: 6 лет 4 месяца

Сообщений: 33

английская дорожка есть?

Создавать темы 28-Июн-2014 00:37

[Профиль]  [ЛС] 

Davron_8899

Стаж: 6 лет 10 месяцев

Сообщений: 6

дайте скорость плиз!!!!!

Создавать темы 05-Авг-2014 00:28

[Профиль]  [ЛС] 

mes19

Стаж: 6 лет 9 месяцев

Сообщений: 5

Suxrob89, Поставь плз на раздачу

Создавать темы 05-Окт-2014 19:56

[Профиль]  [ЛС] 

Ferrari_racer

Стаж: 3 года 11 месяцев

Сообщений: 9

Симпатии: 2

Suxrob89, На английском или на русском языке

Создавать темы 09-Дек-2014 17:08

[Профиль]  [ЛС] 

Ronchi

Стаж: 5 лет 7 месяцев

Сообщений: 42

Симпатии: 1

Хорошо бы было если только этот релиз раздавали а другие на паузу бы поставили (это я сидерам). Для братишкихотел скачать в качестве мультика на новый год но никто не дал скорости, печально впрям

Создавать темы 31-Дек-2014 09:07

[Профиль]  [ЛС] 
Показать сообщения:    
Ответить на тему

Текущее время: 18-Ноя 00:23

Часовой пояс: UTC + 5



Вы не можете начинать темы
Вы не можете отвечать на сообщения
Вы не можете редактировать свои сообщения
Вы не можете удалять свои сообщения
Вы не можете голосовать в опросах
Вы не можете прикреплять файлы к сообщениям
Вы не можете скачивать файлы