Миддлтон / At Middleton ( Адам Роджерс ) [2013 г., Мелодрама | DVDRip ] Лицензия

Ответить на тему
 

bexa96 ®

Стаж: 6 лет 11 месяцев

Сообщений: 381

Симпатии: 49

Миддлтон / At Middleton« You never know what you'll discover on your first day at college » Год выпуска: 2013
Страна:США
Жанр: Мелодрама
Продолжительность: 01:36:13
Перевод: Профессиональный ( многоголосый ) [ Лицензия ]
Режиссер: Адам Роджерс
В ролях: Энди Гарсиа , Вера Фармига , Таисса Фармига , Питер Ригерт , Том Скеррит , Николас Браун , Спенсер Лофранко , Миряна Йокович , Даниэлла, Гарсиа_Лоридо , Шон Кук
Описание: : Мужчина и женщина влюбляются друг в друга во время тура по устройству своих детей в колледж.
 
Качество : DVDRip
Формат: AVI
Видео кодек:XviD
Аудио кодек: AC3
Видео: 720 x 400, XviD, 1639 Кбит/с,
Аудио: AC3, 6 ch, 384 Кбит/с

mediaInfo

General
Format : AVI
Format/Info : Audio Video Interleave
File size : 1.37 GiB
Duration : 1h 36mn
Overall bit rate : 2 033 Kbps
Writing application : VirtualDubMod 1.5.10.3 | www.virtualdub-fr.org || (build 2550/release)
Writing library : VirtualDubMod build 2550/release
Video
ID : 0
Format : MPEG-4 Visual
Format profile : Advanced [email protected]
Format settings, BVOP : 1
Format settings, QPel : No
Format settings, GMC : No warppoints
Format settings, Matrix : Custom
Codec ID : XVID
Codec ID/Hint : XviD
Duration : 1h 36mn
Bit rate : 1 640 Kbps
Width : 720 pixels
Height : 400 pixels
Display aspect ratio : 16:9
Frame rate : 25.000 fps
Color space : YUV
Chroma subsampling : 4:2:0
Bit depth : 8 bits
Scan type : Progressive
Compression mode : Lossy
Bits/(Pixel*Frame) : 0.228
Stream size : 1.10 GiB (81%)
Writing library : XviD 1.2.1 (UTC 2008-12-04)
Audio
ID : 1
Format : AC-3
Format/Info : Audio Coding 3
Mode extension : CM (complete main)
Codec ID : 2000
Duration : 1h 36mn
Bit rate mode : Constant
Bit rate : 384 Kbps
Channel(s) : 6 channels
Channel positions : Front: L C R, Side: L R, LFE
Sampling rate : 48.0 KHz
Bit depth : 16 bits
Compression mode : Lossy
Stream size : 264 MiB (19%)
Alignment : Split accross interleaves
Interleave, duration : 40 ms (1.00 video frame)
Interleave, preload duration : 500 ms

Скриншоты



Последний раз редактировалось: bexa96 (2013-12-14 23:41), всего редактировалось 1 раз

Создавать темы 14-Дек-2013 21:21

[Профиль]  [ЛС] 

Grock

Стаж: 6 лет 10 месяцев

Сообщений: 637

Симпатии: 113

Перезалейте скрины, они не совпадают с тех данными и добавьте Медиа Инфо пожалуйста

Создавать темы 14-Дек-2013 23:33

[Профиль]  [ЛС] 

SeabiscuiT

Стаж: 4 года 9 месяцев

Сообщений: 56

Симпатии: 4

куда делась заветная кнопочка???

Создавать темы 27-Фев-2014 23:26

[Профиль]  [ЛС] 

S1lence7777

Стаж: 4 года 9 месяцев

Сообщений: 15

Симпатии: 1

люди добрые не забывайте оставлять комменты про фильм

Создавать темы 28-Фев-2014 21:31

[Профиль]  [ЛС] 

bexa96 ®

Стаж: 6 лет 11 месяцев

Сообщений: 381

Симпатии: 49

SeabiscuiT, правом угле ниже )

Создавать темы 01-Мар-2014 00:01

[Профиль]  [ЛС] 

SeabiscuiT

Стаж: 4 года 9 месяцев

Сообщений: 56

Симпатии: 4

кто придумал на знак "мне нравится" применить сердечко??? программисты девочки??? столько разных других значков можно было использовать...например: отмечаешь фильм ОЛДБОЙ (Пак Чхан - ука) и ставишь... сердечко...Это прикол???????

Создавать темы 01-Мар-2014 08:26

[Профиль]  [ЛС] 
Показать сообщения:    
Ответить на тему

Текущее время: 14-Дек 14:51

Часовой пояс: UTC + 5



Вы не можете начинать темы
Вы не можете отвечать на сообщения
Вы не можете редактировать свои сообщения
Вы не можете удалять свои сообщения
Вы не можете голосовать в опросах
Вы не можете прикреплять файлы к сообщениям
Вы не можете скачивать файлы