12 лет рабства / 12 Years a Slave (Стив МакКуин / Steve McQueen) [2013, США, Великобритания, драма, биография, история, WEB-DLRip] [iTunes]

Страницы :  1, 2, 3  След.

Ответить на тему
 

Suxrob89 ®

Стаж: 7 лет

Сообщений: 933

Симпатии: 564

-12 лет рабства / 12 Years a Slave-«The extraordinary true story of Solomon Northup»- Страна: США, Великобритания
Жанр: драма, биография, история
Год выпуска: 2013
Продолжительность: 02:13:59
Перевод: Дублированный [iTunes]
Субтитры: нет-Режиссер: Стив МакКуин / Steve McQueen-В ролях: Чиветель Эджиофор, Майкл Фассбендер, Бенедикт Камбербэтч, Пол Дано, Пол Джаматти, Лупита Нионго, Сара Полсон, Брэд Питт, Элфри Вудард, Куавенжаней Уоллис, Дуайт Генри, Дикки Гравуа-Описание: Соломон Нортап был женатым и образованным мужчиной, который жил и работал в Нью-Йорке, когда два человека однажды предложили ему привлекательную работу в Вашингтоне. По прибытии он был похищен, стал рабом и влачил жалкую жизнь, переходя от одного хозяина к другому.-Сценарий: Джон Ридли / John Ridley, Соломон Нортап / Solomon Northup
Продюсер: Деде Гарднер / Dede Gardner, Энтони Катагас / Anthony Katagas, Джереми Клейнер / Jeremy Kleiner, Стив МакКуин / Steve McQueen, Арнон Милчэн / Arnon Milchan
Оператор: Шон Боббитт / Sean Bobbitt
Композитор: Ханс Циммер / Hans Zimmer
Сборы в США: $35 631 688
Мировая премьера: 30 августа 2013-Качество: WEB-DLRip [Рип с WEB-DL 720p]
Формат: AVI
Видео кодек: XviD
Аудио кодек: AC3
Видео данные: 1799 kb/s, 720x400, 23.976 fps
Аудио данные: AC3, 384 kb/s (6 ch), 48 KHz-

Знаете ли Вы, что...

  • В этом фильме снялся актер Таран Киллэм, который часто пародирует Брэда Питта на шоу «Субботним вечером в прямом эфире» (1975). И хотя Брэд Питт тоже снялся в этом фильме, на съемочной площадке актеры ни разу не пересекались. Компания Питта - Plan B - занималась продюсированием фильма, сам же актер исполнил в нем лишь небольшую роль.
  • Этот же сюжет, основанный на мемуарах, написанных в 1853 году, использовался в телевизионном фильме «Одиссея Соломона Нортапа» (1984).
  • Съемки фильма заняли 35 дней. Они проходили на плантации в Вашери, штат Луизиана, недалеко от того места, где содержался реальный Нортап. Порт Нового Орлеана и Саратога воссоздали в декорациях.
  • Спустя год после возвращения домой Соломон Нортап опубликовал свои мемуары. Книга вышла в свет за 9 лет до Гражданской войны, стала бестселлером и вызвала огромную дискуссию в американском обществе. Однако в 20 веке она не переиздавалась и была забыта до тех пор, пока Сью Икин в 1968 году не написала работу, документально подтвердившую историю Нортапа. Режиссер Стив МакКуин узнал о существовании мемуаров Нортапа от своей жены.
  • еще 1 факт
  • В одной из сцен можно заметить в болоте водяной гаицинт (эйхорния), водное растение, произрастающее в Южной Америке. Эти растения были ввезены в Северную Америку только после 1884 года.

Media Info

Общее
Полное имя                               : D:\Раздачи\12.Let.Rabstva.2013.WEB-DLRip.avi
Формат                                   : AVI
Формат/Информация                        : Audio Video Interleave
Профиль формата                          : OpenDML
Размер файла                             : 2,05 Гбайт
Продолжительность                        : 2 ч. 13 м.
Общий поток                              : 2195 Кбит/сек
Программа кодирования                    : VirtualDubMod 1.5.10.2 (build 2540/release)
Библиотека кодирования                   : VirtualDubMod build 2540/release
Видео
Идентификатор                            : 0
Формат                                   : MPEG-4 Visual
Профиль формата                          : Advanced [email protected]
Параметр BVOP формата                    : 2
Параметр QPel формата                    : Нет
Параметр GMC формата                     : Без точки перехода
Параметр матрицы формата                 : Выборочная
Идентификатор кодека                     : XVID
Идентификатор кодека/Подсказка           : XviD
Продолжительность                        : 2 ч. 13 м.
Битрейт                                  : 1799 Кбит/сек
Ширина                                   : 720 пикселей
Высота                                   : 400 пикселей
Соотношение сторон                       : 16:9
Частота кадров                           : 24,000 кадра/сек
Цветовое пространство                    : YUV
Субдискретизация насыщенности            : 4:2:0
Битовая глубина                          : 8 бит
Тип развёртки                            : Прогрессивная
Метод сжатия                             : С потерями
Бит/(Пиксели*Кадры)                      : 0.260
Размер потока                            : 1,68 Гбайт (82%)
Библиотека кодирования                   : XviD 1.2.1 (UTC 2008-12-04)
Аудио
Идентификатор                            : 1
Формат                                   : AC-3
Формат/Информация                        : Audio Coding 3
Расширение режима                        : CM (complete main)
Параметр Endianness формата              : Big
Идентификатор кодека                     : 2000
Продолжительность                        : 2 ч. 13 м.
Вид битрейта                             : Постоянный
Битрейт                                  : 384 Кбит/сек
Каналы                                   : 6 каналов
Расположение каналов                     : Front: L C R, Side: L R, LFE
Частота                                  : 48,0 КГц
Битовая глубина                          : 16 бит
Метод сжатия                             : С потерями
Размер потока                            : 368 Мбайт (17%)
Выравнивание                             : Разделение по промежуткам
Продолжительность промежутка             : 42  мс. (1,00 видеокадр)
Время предзагрузки промежутка            : 500  мс.

Скриншоты



Последний раз редактировалось: Suxrob89 (2014-02-18 12:33), всего редактировалось 4 раз(а)

Создавать темы 15-Дек-2013 04:45

[Профиль]  [ЛС] 

Snooker

Стаж: 3 года 8 месяцев

Сообщений: 18

Симпатии: 2

По описанию фильм должен быть интересным

Создавать темы 15-Дек-2013 07:30

[Профиль]  [ЛС] 

Macintosh_RK

Стаж: 5 лет 5 месяцев

Сообщений: 71

Классный Фильм
_________________
=======Xak_ZoNe_Xkr

Создавать темы 15-Дек-2013 11:17

[Профиль]  [ЛС] 

vanfank

Стаж: 4 года 3 месяца

Сообщений: 141

Симпатии: 5

А есть еще фильмы Майкла Фассбендера и Бенедикта Камбербэтча

Создавать темы 15-Дек-2013 15:10

[Профиль]  [ЛС] 

dwerty

Стаж: 6 лет 1 месяц

Сообщений: 39

Симпатии: 5

За что здесь оскара давать, очередная унылость о судьбе несчастных негров.

Создавать темы 16-Дек-2013 20:20

[Профиль]  [ЛС] 

AeRoNHanD

Стаж: 4 года 10 месяцев

Сообщений: 198

Симпатии: 3

Ух какой рейтинг зашкаливает)))Лицуха когда?????

Создавать темы 26-Дек-2013 00:00

[Профиль]  [ЛС] 

Shuk

Стаж: 3 года 9 месяцев

Сообщений: 35

Симпатии: 11

не качайте, озвучка полный отстой!

Создавать темы 11-Янв-2014 03:12

[Профиль]  [ЛС] 

Nurmukhamedoff

Стаж: 3 года 9 месяцев

Сообщений: 14

Симпатии: 1

Русская аудио дорожка TS. А как английская? Чистая? И что такое DVD screen? Заранее спасибо за помощь!)

Создавать темы 16-Янв-2014 23:41

[Профиль]  [ЛС] 

jas81

Стаж: 3 года 9 месяцев

Сообщений: 108

Симпатии: 7

ну все таки можно посмотреть.... ?

Создавать темы 19-Янв-2014 12:52

[Профиль]  [ЛС] 

gaffar

Стаж: 4 года 7 месяцев

Сообщений: 42

Симпатии: 1

фильм хороший!


Последний раз редактировалось: gaffar (2014-03-03 10:37), всего редактировалось 2 раз(а)

Создавать темы 20-Янв-2014 19:11

[Профиль]  [ЛС] 

jas81

Стаж: 3 года 9 месяцев

Сообщений: 108

Симпатии: 7

звук что, такая плохая. Ну можно хотя понимать или как

Создавать темы 20-Янв-2014 19:27

[Профиль]  [ЛС] 

Топик был перенесен из форума CamRip\Telesync\SATRip\TVRip в форум Фильмы за 2013
Suxrob89

Создавать темы 18-Фев-2014 12:32

 

titton

Стаж: 7 лет 1 месяц

Сообщений: 69

Симпатии: 2

дайте скорост ta ta ta

Создавать темы 18-Фев-2014 13:18

[Профиль]  [ЛС] 

Rayne

Стаж: 6 лет 4 месяца

Сообщений: 36

Симпатии: 2

действительно ли озвучка с айтюнса?

Создавать темы 18-Фев-2014 15:22

[Профиль]  [ЛС] 

giga

Стаж: 5 лет 2 месяца

Сообщений: 192

Симпатии: 22

Джанго! Квентина Тарантино

Создавать темы 18-Фев-2014 20:55

[Профиль]  [ЛС] 
Показать сообщения:    
Ответить на тему

Текущее время: 20-Авг 20:26

Часовой пояс: UTC + 5



Вы не можете начинать темы
Вы не можете отвечать на сообщения
Вы не можете редактировать свои сообщения
Вы не можете удалять свои сообщения
Вы не можете голосовать в опросах
Вы не можете прикреплять файлы к сообщениям
Вы не можете скачивать файлы