Город, в котором ты живёшь / Kimi no Iru Machi (Ямаути Сигэясу) [TV] [1-12 из 12] [RUS(int)+JAP] [2013 г., Комедия, романтика, школа, HDTVRip]

Ответить на тему
 

Phantomhive ®

Стаж: 4 года 4 месяца

Сообщений: 218

Симпатии: 10

Город, в котором ты живёшь /A Town Where You Live /Kimi no Iru Machi- Год выпуска: 2013
Выпуск: c 13.07.2013
Страна: Япония
Жанр: Комедия, романтика, школа
Продолжительность: ТВ (12 эп.), 25 мин.
Перевод: Любительский двухголосный закадровый-Режиссер: Ямаути Сигэясу
Снято по манге: Kimi no Iru Machi
Автор оригинала: Сэо Кодзи
Студия: -Описание: Главный герой, Киришима Харуто, живет спокойной, размеренной жизнью в небольшой деревеньке под названием Хирошима. В один прекрасный день у него дома поселяется приехавшая из Токио девушка по имени Юзуки Эба. Поначала Харуто наотрез отказывался жить с ней под одной крышей, но, в конце концов, смирился. Эба, конечно, красива, мила, только вот постоянно доставляет кучу проблем нашему герою. А если учесть, что Харуто влюблен в свою одноклассницу, Канзаки Нанами, то все принимает куда более серьезный оборот... Но это - лишь начало истории...-Озвучивание: San4Ees & Viki (SHIZA Project) [Sample]
Работа над звуком и таймингом: Gigantic Guyver
Работа над переводом: loster01 & Semyon44 - 01-02 kuro - 03-12-Тип релиза: Без хардсаба
Качество: HDTVRip
Автор рипа: Doki
Формат видео: MP4
Видео кодек: H.26x
Аудио кодек: AAC
Наличие линковки: Нет
Видео: x264 [10 bit], 1280х720, ~1563 kbps, 23,976 fps
Аудио Russian: AAC, 192kbps, 48 kHz, 2 ch (в составе контейнера)
Аудио Japan: AAC, 192kbps, 48 kHz, 2 ch
Субтитры: Полные+надписи (внешними файлами)-

Подробные тех.данные:

General
Complete name : D:\[SHIZA Project] Kimi no Iru Machi TV [San4Ees & Viki] [HDTVRip]\[SHIZA Project] Kimi no Iru Machi TV [01] [San4Ees & Viki].mp4
Format : MPEG-4
Format profile : Base Media
Codec ID : isom
File size : 288 MiB
Duration : 20mn 40s
Overall bit rate mode : Variable
Overall bit rate : 1 950 Kbps
Encoded date : UTC 2013-07-17 23:48:17
Tagged date : UTC 2013-07-17 23:48:17
Writing application : Yamb 2.1.0.0 [http://yamb.unite-video.com]
Video
ID : 1
Format : AVC
Format/Info : Advanced Video Codec
Format profile : High 10@L5.0
Format settings, CABAC : Yes
Format settings, ReFrames : 5 frames
Codec ID : avc1
Codec ID/Info : Advanced Video Coding
Duration : 20mn 40s
Bit rate : 1 563 Kbps
Maximum bit rate : 8 564 Kbps
Width : 1 280 pixels
Height : 720 pixels
Display aspect ratio : 16:9
Frame rate mode : Constant
Frame rate : 23.976 fps
Color space : YUV
Chroma subsampling : 4:2:0
Bit depth : 10 bits
Scan type : Progressive
Bits/(Pixel*Frame) : 0.071
Stream size : 231 MiB (80%)
Title : www.SHIZA-Project.com
Writing library : x264 core 130 r2273 b3065e6
Encoding settings : cabac=1 / ref=5 / deblock=1:0:0 / analyse=0x3:0x113 / me=umh / subme=8 / psy=1 / psy_rd=1.00:0.00 / mixed_ref=1 / me_range=16 / chroma_me=1 / trellis=1 / 8x8dct=1 / cqm=0 / deadzone=21,11 / fast_pskip=1 / chroma_qp_offset=-2 / threads=8 / lookahead_threads=1 / sliced_threads=0 / nr=0 / decimate=1 / interlaced=0 / bluray_compat=0 / constrained_intra=0 / bframes=3 / b_pyramid=2 / b_adapt=2 / b_bias=0 / direct=3 / weightb=1 / open_gop=0 / weightp=2 / keyint=250 / keyint_min=23 / scenecut=40 / intra_refresh=0 / rc_lookahead=50 / rc=crf / mbtree=1 / crf=18.0 / qcomp=0.60 / qpmin=0 / qpmax=51 / qpstep=4 / vbv_maxrate=50000 / vbv_bufsize=50000 / crf_max=0.0 / nal_hrd=none / ip_ratio=1.40 / aq=1:1.00
Language : Japanese
Encoded date : UTC 2013-07-17 23:14:11
Tagged date : UTC 2013-07-17 23:48:18
Audio #1
ID : 2
Format : AAC
Format/Info : Advanced Audio Codec
Format profile : LC
Codec ID : 40
Duration : 20mn 40s
Bit rate mode : Variable
Bit rate : 192 Kbps
Maximum bit rate : 256 Kbps
Channel(s) : 2 channels
Channel positions : Front: L R
Sampling rate : 48.0 KHz
Compression mode : Lossy
Stream size : 28.4 MiB (10%)
Title : San4Ees & Viki from SHIZA
Language : Russian
Encoded date : UTC 2013-07-17 23:48:17
Tagged date : UTC 2013-07-17 23:48:18
Audio #2
ID : 3
Format : AAC
Format/Info : Advanced Audio Codec
Format profile : LC
Codec ID : 40
Duration : 20mn 40s
Bit rate mode : Variable
Bit rate : 192 Kbps
Maximum bit rate : 194 Kbps
Channel(s) : 2 channels
Channel positions : Front: L R
Sampling rate : 48.0 KHz
Compression mode : Lossy
Stream size : 27.9 MiB (10%)
Title : JAP Original
Language : Japanese
Encoded date : UTC 2013-07-17 23:48:18
Tagged date : UTC 2013-07-17 23:48:18

Список эпизодов

01. В погоне за ней
02. Когда цветёт сакура
03. Внезапный поцелуй
04. Приветствие
05. Объявление войны
06. Мои истинные чувства
07. Желание
08. Вечерняя встреча
09. Пошли на свидание
10. Красивые цветы
11. Признание
12. Город, в котором ты живёшь

Скриншоты:



Последний раз редактировалось: Phantomhive (2013-12-16 18:31), всего редактировалось 7 раз(а)

Создавать темы 15-Дек-2013 09:25

[Профиль]  [ЛС] 

Phantomhive ®

Стаж: 4 года 4 месяца

Сообщений: 218

Симпатии: 10

Админи нашот постера простите у меня чота опят не получилса пожалуйста поправте!!!

Создавать темы 15-Дек-2013 09:27

[Профиль]  [ЛС] 

Rambotnik

Стаж: 6 лет 5 месяцев

Сообщений: 1274

Симпатии: 81

Вы пользуетесь неправильным кодом. Для выравнивания постера используйте не "align=right", а "img=right". А ещё поправьте шапку релиза согласно требованиям раздела:
[Название на русском языке / Оригинальное название на английском / Оригинальное название на японском (опционально) (Режиссер) [тип аниме] [кол-во серий] [информация о хардсабе] [информация о встроенных и внешних дорожках аудио и субтитров] [год, жанр(ы), качество]
Теперь по описанию:
Субтитры : Отсутствуют
А что тогда в папке с сабами ?)

Создавать темы 15-Дек-2013 14:13

[Профиль]  [ЛС] 

Phantomhive ®

Стаж: 4 года 4 месяца

Сообщений: 218

Симпатии: 10

я типа поправил проверте всё норм или ест ишо детали!!

Создавать темы 15-Дек-2013 15:26

[Профиль]  [ЛС] 

Rambotnik

Стаж: 6 лет 5 месяцев

Сообщений: 1274

Симпатии: 81

Есть детали. В шапке нехватает типа: [TV] и количества серий [xx из xx].
От того, что Вы убрали субтитры из описания, из релиза они не пропали. Укажите в техданных, что субтитры идут внешними файлами.

Создавать темы 15-Дек-2013 18:26

[Профиль]  [ЛС] 

Phantomhive ®

Стаж: 4 года 4 месяца

Сообщений: 218

Симпатии: 10

здес ест все сери нашот субтитры я постараюс

Создавать темы 16-Дек-2013 08:57

[Профиль]  [ЛС] 

Rambotnik

Стаж: 6 лет 5 месяцев

Сообщений: 1274

Симпатии: 81

Субтитры у Вас идут внешними файлами: папка Subtitles, внутри сабы формата .ass и .srt. Раз есть все серии - так и укажите в шапке: [TV-1] [12 из 12]

Создавать темы 16-Дек-2013 09:07

[Профиль]  [ЛС] 

bumblebee

Стаж: 7 лет 2 месяца

Сообщений: 97

Симпатии: 1

мда за 4 дня только 3% скачано,долго качать придется...(((

Создавать темы 20-Дек-2013 00:16

[Профиль]  [ЛС] 

Phantomhive ®

Стаж: 4 года 4 месяца

Сообщений: 218

Симпатии: 10

простите я раздаю 09 до 19:00 у меня шас ночная работа!!! прошу понят!!!

Создавать темы 20-Дек-2013 08:01

[Профиль]  [ЛС] 
Показать сообщения:    
Ответить на тему

Текущее время: 23-Окт 09:25

Часовой пояс: UTC + 5



Вы не можете начинать темы
Вы не можете отвечать на сообщения
Вы не можете редактировать свои сообщения
Вы не можете удалять свои сообщения
Вы не можете голосовать в опросах
Вы не можете прикреплять файлы к сообщениям
Вы не можете скачивать файлы