Внутри себя я танцую / …а в душе я танцую / Inside I'm Dancing (Дэмиен О`Доннелл / Damien O'Donnell) [2004 г., Франция, Великобритания, Ирландия, драма, DVDRip] MVO + Original + Sub (Rus, Eng)

Ответить на тему
 

razor2011 ®

Стаж: 5 лет 3 месяца

Сообщений: 227

Симпатии: 37

-Внутри себя я танцую / …а в душе я танцую / Inside I'm Dancing«Парализуй жизнь»Год выпуска: 2004
Страна: Франция, Великобритания, Ирландия
Жанр: драма-Продолжительность: 01:37:40
Перевод: Профессиональный (многоголосый, закадровый)
Субтитры: есть (русские, анлийские) - .srt)
Оригинальная аудиодорожка: Английская-Режиссер: Дэмиен О`Доннелл / Damien O'Donnell-В ролях:
Джеймс МакЭвой (Rory O'Shea), Стивен Робертсон (Michael Connolly), Ромола Гарай (Siobhan), Джерард МакСорли (Fergus Connolly), Том Хикки (Con O'Shea), Бренда Фрикер (Eileen), Алан Кинг (Tommy), Рут МакКейб (Annie), Анна Хили (Alice), Рэйчел Ханна (Girl in Pub), Эммет Кирван (Angry Man), Пэт Шорт (Nightclub Doorman)-Описание:Майклу 24 года, и почти всю свою жизнь он провел в доме для инвалидов, куда попал, переболев в детстве церебральным параличом. Он знакомится с новым пациентом клиники — Рори О’Ши, которого приковала к инвалидной коляске мышечная атрофия. Как и Майкл, он практически не может передвигаться, но это не мешает Рори по-своему наслаждаться жизнью. Его смелость и безразличие к ударам судьбы становятся отличным примером для Майкла.-Доп. информация:- -Рип совместим с бытовыми DVD-проигрывателями.-Качество видео: DVDRip
Формат видео: AVI
Видео кодек: XviD
Аудио кодек: AC3
Видео: XviD; 704x384 (1:1.83), 2227 kbps, 25 fps, 0.329 bpp
Аудио № 1 (RUS): AC3; 48.0 KHz; 448 Kbps; CBR; 6 ch (MVO)
Аудио № 2 (ENG): AC3; 48.0 KHz; 448 Kbps; CBR; 6 ch (Original)
Субтитры: SRT (Rus, Eng)
-

Скриншоты



MediaInfo

General
Complete name : \V_dushe_ya_tanzuyu_(2004)\V_dushe_ya_tanzuyu_(2004).DVDRip.XviD.AC3-All.Films-RG.avi
Format : AVI
Format/Info : Audio Video Interleave
Format profile : OpenDML
File size : 2.18 GiB
Duration : 1h 39mn
Overall bit rate : 3 141 Kbps
Movie name : Внутри себя я танцую / …а в душе я танцую / Inside I'm Dancing (2004) DVDRip [All.Films][RG]
Director : [rutracker.org]
Writing application : VirtualDubMod 1.5.10.3 | www.virtualdub-fr.org || (build 2550/release)
Video
ID : 0
Format : MPEG-4 Visual
Format profile : Advanced [email protected]
Format settings, BVOP : 1
Format settings, QPel : No
Format settings, GMC : No warppoints
Format settings, Matrix : Custom
Codec ID : XVID
Codec ID/Hint : XviD
Duration : 1h 39mn
Bit rate : 2 227 Kbps
Width : 704 pixels
Height : 384 pixels
Display aspect ratio : 1.85:1
Frame rate : 25.000 fps
Color space : YUV
Chroma subsampling : 4:2:0
Bit depth : 8 bits
Scan type : Progressive
Compression mode : Lossy
Bits/(Pixel*Frame) : 0.329
Stream size : 1.54 GiB (71%)
Writing library : XviD 73
Audio #1
ID : 1
Format : AC-3
Format/Info : Audio Coding 3
Mode extension : CM (complete main)
Format settings, Endianness : Big
Codec ID : 2000
Duration : 1h 39mn
Bit rate mode : Constant
Bit rate : 448 Kbps
Channel(s) : 6 channels
Channel positions : Front: L C R, Side: L R, LFE
Sampling rate : 48.0 KHz
Bit depth : 16 bits
Compression mode : Lossy
Delay relative to video : 300ms
Stream size : 318 MiB (14%)
Alignment : Split accross interleaves
Interleave, duration : 40 ms (1.00 video frame)
Interleave, preload duration : 500 ms
Audio #2
ID : 2
Format : AC-3
Format/Info : Audio Coding 3
Mode extension : CM (complete main)
Format settings, Endianness : Big
Codec ID : 2000
Duration : 1h 39mn
Bit rate mode : Constant
Bit rate : 448 Kbps
Channel(s) : 6 channels
Channel positions : Front: L C R, Side: L R, LFE
Sampling rate : 48.0 KHz
Bit depth : 16 bits
Compression mode : Lossy
Delay relative to video : 300ms
Stream size : 318 MiB (14%)
Alignment : Split accross interleaves
Interleave, duration : 40 ms (1.00 video frame)
Interleave, preload duration : 500 ms

Создавать темы 15-Дек-2013 14:26

[Профиль]  [ЛС] 

legend_21

Стаж: 8 лет 3 месяца

Сообщений: 16

дайте скачать, пожалуйста народ!

Создавать темы 19-Дек-2013 22:03

[Профиль]  [ЛС] 

vladikjon86

Стаж: 5 лет 3 месяца

Сообщений: 12

Симпатии: 1

Фильм классный! А оригинальная дорожка судя по всему на ирландском диалекте, с акцентом =)))

Создавать темы 07-Авг-2014 20:35

[Профиль]  [ЛС] 
Показать сообщения:    
Ответить на тему

Текущее время: 15-Дек 05:46

Часовой пояс: UTC + 5



Вы не можете начинать темы
Вы не можете отвечать на сообщения
Вы не можете редактировать свои сообщения
Вы не можете удалять свои сообщения
Вы не можете голосовать в опросах
Вы не можете прикреплять файлы к сообщениям
Вы не можете скачивать файлы