Менталист / The Mentalist / Сезон: 6 полный / Серии: 1-22 из 22 (Крис Лонг) [2013-2014 г., драма, криминал, WEB-DLRip] MVO [BaibaKo] + Original

Страницы :  1, 2, 3  След.

Ответить на тему
 

saidali ®

Стаж: 5 лет 6 месяцев

Сообщений: 868

Симпатии: 554

--Менталист / The Mentalist-Полный шестой сезон-- Год выпуска: 2013-2014
Страна: США
Жанр: драма, криминал
Продолжительность: ~00:42:00
Перевод: Профессиональный (многоголосый, закадровый) BaibaKo-Режиссер: Крис Лонг-В ролях: Саймон Бэйкер, Робин Танни, Тим Кенг, Овайн Йомэн, Аманда Риджетти, Онжаню Эллис, Грегори Итцин, Прюитт Тэйлор Винс, Майкл Рэди, Майкл Гэстон, Эрик Винтер-Описание: Патрик Джейн — детектив и независимый консультант из Калифорнийского Бюро Расследований (КБР), он использует свои отточенные, как лезвие, навыки наблюдения для раскрытия тяжких преступлений. В самом Бюро Джейн известен за частые нарушения протокола, а также за его звездное прошлое: он работал медиумом, однако теперь сам признает, что симулировал паранормальные способности. Роль Джейна в раскрытии целой серии загадочных преступлений высоко ценится коллегами. Но суровый старший агент Тереза Лисбон против того, чтоб Джейн работал с ее отрядом, и то вынужденно признает его успехи, то критикует его за театральность, нарциссизм и отсутствие границ.-Качество: WEB-DLRip
Формат: AVI
Видео кодек: XviD
Аудио кодек: MP3
Видео: MPEG-4 Visual XviD Advanced [email protected] 1553 Кбит/сек 720x400 23,976 кадра/сек
Аудио Rus: MPEG Audio MP3 2 канала, 48,0 КГц 192 Кбит/сек
Аудио Eng: MPEG Audio MP3 2 канала, 48,0 КГц 192 Кбит/сек
- -

Скриншоты



Media Info

General
Complete name : D:\Фильмы\Сериалы\The Mentalist\Менталист Сезон 6 (BaibaKo)\Mentalist.s06e01.WEB-DLRip.XviD.Rus.Eng.BaibaKo.tv.avi
Format : AVI
Format/Info : Audio Video Interleave
File size : 583 MiB
Duration : 41mn 45s
Overall bit rate : 1 951 Kbps
Writing application : VirtualDubMod 1.5.10.2 (build 2542/release)
Writing library : VirtualDubMod build 2542/release
Video
ID : 0
Format : MPEG-4 Visual
Format profile : Advanced [email protected]
Format settings, BVOP : 2
Format settings, QPel : No
Format settings, GMC : No warppoints
Format settings, Matrix : Default (H.263)
Codec ID : XVID
Codec ID/Hint : XviD
Duration : 41mn 45s
Bit rate : 1 553 Kbps
Width : 720 pixels
Height : 400 pixels
Display aspect ratio : 16:9
Frame rate : 23.976 fps
Color space : YUV
Chroma subsampling : 4:2:0
Bit depth : 8 bits
Scan type : Progressive
Compression mode : Lossy
Bits/(Pixel*Frame) : 0.225
Stream size : 464 MiB (80%)
Writing library : XviD 1.2.1 (UTC 2008-12-04)
Audio #1
ID : 1
Format : MPEG Audio
Format version : Version 1
Format profile : Layer 3
Mode : Joint stereo
Mode extension : MS Stereo
Codec ID : 55
Codec ID/Hint : MP3
Duration : 41mn 45s
Bit rate mode : Constant
Bit rate : 192 Kbps
Channel(s) : 2 channels
Sampling rate : 48.0 KHz
Compression mode : Lossy
Stream size : 57.3 MiB (10%)
Alignment : Aligned on interleaves
Interleave, duration : 42 ms (1.00 video frame)
Interleave, preload duration : 504 ms
Writing library : LAME3.99r
Encoding settings : -m j -V 4 -q 2 -lowpass 18.6 -b 192
Audio #2
ID : 2
Format : MPEG Audio
Format version : Version 1
Format profile : Layer 3
Mode : Joint stereo
Mode extension : MS Stereo
Codec ID : 55
Codec ID/Hint : MP3
Duration : 41mn 45s
Bit rate mode : Constant
Bit rate : 192 Kbps
Channel(s) : 2 channels
Sampling rate : 48.0 KHz
Compression mode : Lossy
Stream size : 57.3 MiB (10%)
Alignment : Aligned on interleaves
Interleave, duration : 42 ms (1.00 video frame)
Interleave, preload duration : 504 ms
Writing library : LAME3.99r
Encoding settings : -m j -V 4 -q 2 -lowpass 18.6 -b 192

Раздача ведётся путём добавления новых серий

Раздача ведётся путём добавления новых серий; при каждом добавлении создаётся новый торрент. Чтобы начать докачку новой серии, пользователям необходимо сделать следующее:
(1) остановить скачивание,
(2) удалить старый торрент у себя из клиента (старые серии удалять не надо),
(3) скачать новый торрент и запустить его у себя в клиенте вместо старого, при этом указать клиенту путь в старую папку куда и должно происходить скачивание новых серий.
Ваш клиент при этом должен произвести хеширование (проверку) старой папки (если не производит сам - помогите ему сделать это), и будет докачивать только те серии которых у вас ещё нет. Старые серии при этом не удаляются, а продолжают раздаваться!
Eсли вы уже удалили старые серии, то предотвратить повторную закачку старых серий можно, отжав галочку в соответствующих местах при запуске нового торрента. По возможности, желательно не удалять старые серии как можно дольше чтобы релизёр не столько продолжал раздавать старые серии, а смог сконцентрироваться на новых.

График выхода новых серий в оригинале

6.01. 29.09.2013 Роза пустыни (The Desert Rose)
6.02. 06.10.2013 Чёрнокрылая красная птица (Black-Winged Redbird)
6.03. 13.10.2013 Свадьба в красном (Wedding in Red)
6.04. 20.10.2013 Список из красного (Red Listed)
6.05. 27.10.2013 Красная татуировка (The Red Tattoo)
6.06. 10.11.2013 Огонь и Сера (Fire and Brimstone)
6.07. 17.11.2013 Великий красный дракон (The Great Red Dragon)
6.08. 24.11.2013 Красный Джон (Red John)
6.09. 01.12.2013 Мои голубые небеса (My Blue Heaven)
6.10. 08.12.2013 Зелёный палец (Green Thumb)

6.11. 05.01.2014 Белые линии (White Lines)
6.12. 12.01.2014 Золотой молоток (Golden Hammer)
6.13. 09.03.2014 Black Helicopters
6.14. 16.03.2014 Grey Water
6.15. 23.03.2014 White as the Driven Snow
6.16. 30.03.2014 Violets

6.17. 13.04.2014 Silver Wings of Time
6.18. 20.04.2014 Forest Green
6.19. 27.04.2014 Brown Eyed Girls
6.20. 04.05.2014 Il Tavolo Bianco
6.21. 11.05.2014 Black Hearts

6.22. 18.05.2014 Blue Bird


Последний раз редактировалось: saidali (2014-05-27 23:01), всего редактировалось 24 раз(а)

Создавать темы 15-Дек-2013 15:49

[Профиль]  [ЛС] 

GRIMM

Стаж: 6 лет 7 месяцев

Сообщений: 811

Симпатии: 172

saidali Молодец продолжай в том же духе, только не бросай раздачи

Создавать темы 15-Дек-2013 16:03

[Профиль]  [ЛС] 

AZIZ97

Стаж: 4 года 11 месяцев

Сообщений: 199

Симпатии: 22

я конечно извиняюсь, но мне казалось Патрик создал такую же тему (раньше чем эта) сейчас в поиск вбиваю а её нет? все понял почему сори за загрязнение темы

Создавать темы 15-Дек-2013 16:11

[Профиль]  [ЛС] 

temurid

Стаж: 5 лет 4 месяца

Сообщений: 60

Симпатии: 1

saidali, когда выйдет 11 серия

Создавать темы 17-Дек-2013 01:05

[Профиль]  [ЛС] 

saidali ®

Стаж: 5 лет 6 месяцев

Сообщений: 868

Симпатии: 554

temurid, Повесил график выхода новых серий

Создавать темы 17-Дек-2013 09:19

[Профиль]  [ЛС] 

temurid

Стаж: 5 лет 4 месяца

Сообщений: 60

Симпатии: 1

saidali, мдаа вот перерывчик на 11 сериал

Создавать темы 20-Дек-2013 00:55

[Профиль]  [ЛС] 

temurid

Стаж: 5 лет 4 месяца

Сообщений: 60

Симпатии: 1

все как то просто обошлось с КД наверно еще все впереди(

Создавать темы 25-Дек-2013 23:36

[Профиль]  [ЛС] 

temurid

Стаж: 5 лет 4 месяца

Сообщений: 60

Симпатии: 1

когда 11 серия

Создавать темы 05-Янв-2014 23:54

[Профиль]  [ЛС] 

saidali ®

Стаж: 5 лет 6 месяцев

Сообщений: 868

Симпатии: 554

temurid, в США вчера показовали 11 серию потребуется 2-3 дня для озвучки

Создавать темы 06-Янв-2014 09:25

[Профиль]  [ЛС] 

saidali ®

Стаж: 5 лет 6 месяцев

Сообщений: 868

Симпатии: 554

Создавать темы 10-Янв-2014 09:59

[Профиль]  [ЛС] 

temurid

Стаж: 5 лет 4 месяца

Сообщений: 60

Симпатии: 1

эээ наконец то!!!! tp

Создавать темы 10-Янв-2014 12:44

[Профиль]  [ЛС] 

Adviser

Стаж: 4 года 6 месяцев

Сообщений: 21

Симпатии: 2

Дайте скорости. плз

Создавать темы 10-Янв-2014 22:30

[Профиль]  [ЛС] 

saidali ®

Стаж: 5 лет 6 месяцев

Сообщений: 868

Симпатии: 554

Создавать темы 19-Янв-2014 15:56

[Профиль]  [ЛС] 

pashkevi4

Стаж: 4 года 5 месяцев

Сообщений: 48

Симпатии: 4

У всех плохо качается или только у меня? по 400мб в месяц в лучшем случае!!!

Создавать темы 19-Янв-2014 17:20

[Профиль]  [ЛС] 

rj0827

Стаж: 6 лет 4 месяца

Сообщений: 14

Почему не качает??? Кто обьяснит? bw

Создавать темы 20-Янв-2014 18:49

[Профиль]  [ЛС] 
Показать сообщения:    
Ответить на тему

Текущее время: 19-Авг 23:52

Часовой пояс: UTC + 5



Вы не можете начинать темы
Вы не можете отвечать на сообщения
Вы не можете редактировать свои сообщения
Вы не можете удалять свои сообщения
Вы не можете голосовать в опросах
Вы не можете прикреплять файлы к сообщениям
Вы не можете скачивать файлы