Новогодняя жена (Светлана Музыченко) [2012, комедия, WEB-DLRip-AVC]

Ответить на тему
 

Suxrob89 ®

Стаж: 7 лет

Сообщений: 933

Симпатии: 564

-Новогодняя жена-«С кем новый год встретишь... С тем всю жизнь и проживёшь!»- Страна: Россия
Жанр: комедия
Год выпуска: 2012
Продолжительность: 01:32:58
Перевод: Не требуется-Режиссер: Светлана Музыченко-В ролях: Сергей Перегудов, Карина Андоленко, Алёна Яковлева, Анна Донченко, Александр Арсентьев, Антон Васильев, Алексей Гришин-Описание: В самый разгар вечеринки в клубе Даша и Максим встречают друг друга...и просыпаются в одной постели... Решив, что их свела сама судьба, герои принимаются строить идеальные, «правильные» отношения и...подают заявление в ЗАГС, предварительно заключив пари: если в течение месяца им удастся не просто прожить вместе, но и сохранить чувство влюбленности, дело закончится свадьбой.
Максим с Дашей изо всех сил пытаются стать настоящей парой, хотя жизнь постоянно проверяет их отношения на прочность. А тут и оставленные в прошлом «пассии» тоже внезапно воспылали чувствами к отринутым «половинкам».
Героям предстоит пережить немало смешных, а порой драматичных ситуаций, прежде чем они поймут, есть ли действительно между ними то самое, ради чего все затевалось - любовь...- -Сценарий: Андрей Романов, Екатерина Григорьева, Марина Степнова
Продюсер: Анастасия Шипулина, Родион Павлючик, Игорь Марин
Оператор: Руслан Герасименков
Композитор: Игорь Холопов
Релиз на DVD: 26 февраля 2013, «Lizard Cinema Trade»-Качество: WEB-DLRip-AVC
Контейнер: MKV
Видео: AVC, 1 024x576, 2 036 Kbps, 25 fps
Аудио: AC3, 2 ch, 44.1 kHz, 192 kbps, 16 bit-

Media Info

D:\Novogodnaya.jena.2012.WEB-DLRip.mkv
General
Unique ID : 187567943447027820683276426079217231944 (0x8D1C459A8770203D8573DC4B75B1A848)
Complete name : D:\Novogodnaya.jena.2012.WEB-DLRip.mkv
Format : Matroska
Format version : Version 4 / Version 2
File size : 1.45 GiB
Duration : 1h 32mn
Overall bit rate : 2 229 Kbps
Encoded date : UTC 2013-12-12 15:05:09
Writing application : mkvmerge v6.1.0 ('Old Devil') built on Mar 2 2013 14:32:37
Writing library : libebml v1.3.0 + libmatroska v1.4.0
Video #1
ID : 1
Format : AVC
Format/Info : Advanced Video Codec
Format profile : [email protected]
Format settings, CABAC : Yes
Format settings, ReFrames : 5 frames
Codec ID : V_MPEG4/ISO/AVC
Duration : 1h 32mn
Bit rate : 2 036 Kbps
Width : 1 024 pixels
Height : 576 pixels
Display aspect ratio : 16:9
Frame rate mode : Constant
Frame rate : 25.000 fps
Color space : YUV
Chroma subsampling : 4:2:0
Bit depth : 8 bits
Scan type : Progressive
Bits/(Pixel*Frame) : 0.138
Stream size : 1.29 GiB (89%)
Writing library : x264 core 140 r2377 1ca7bb9
Encoding settings : cabac=1 / ref=5 / deblock=1:-3:-3 / analyse=0x3:0x133 / me=umh / subme=7 / psy=1 / psy_rd=1.00:0.00 / mixed_ref=1 / me_range=32 / chroma_me=1 / trellis=2 / 8x8dct=1 / cqm=0 / deadzone=21,11 / fast_pskip=1 / chroma_qp_offset=-2 / threads=4 / lookahead_threads=1 / sliced_threads=0 / nr=0 / decimate=1 / interlaced=0 / bluray_compat=0 / constrained_intra=0 / bframes=5 / b_pyramid=2 / b_adapt=2 / b_bias=0 / direct=3 / weightb=1 / open_gop=0 / weightp=2 / keyint=250 / keyint_min=25 / scenecut=40 / intra_refresh=0 / rc_lookahead=40 / rc=2pass / mbtree=1 / bitrate=2036 / ratetol=1.0 / qcomp=0.60 / qpmin=10 / qpmax=51 / qpstep=4 / cplxblur=20.0 / qblur=0.5 / vbv_maxrate=240000 / vbv_bufsize=240000 / nal_hrd=none / filler=0 / ip_ratio=1.40 / aq=1:1.00
Default : Yes
Forced : No
Audio #2
ID : 2
Format : AC-3
Format/Info : Audio Coding 3
Mode extension : CM (complete main)
Format settings, Endianness : Big
Codec ID : A_AC3
Duration : 1h 32mn
Bit rate mode : Constant
Bit rate : 192 Kbps
Channel(s) : 2 channels
Channel positions : Front: L R
Sampling rate : 44.1 KHz
Bit depth : 16 bits
Compression mode : Lossy
Stream size : 128 MiB (9%)
Default : Yes
Forced : No

Скриншот с названием фильма

Скриншоты



Последний раз редактировалось: Suxrob89 (2013-12-16 11:33), всего редактировалось 2 раз(а)

Создавать темы 16-Дек-2013 07:21

[Профиль]  [ЛС] 
Показать сообщения:    
Ответить на тему

Текущее время: 17-Авг 22:37

Часовой пояс: UTC + 5



Вы не можете начинать темы
Вы не можете отвечать на сообщения
Вы не можете редактировать свои сообщения
Вы не можете удалять свои сообщения
Вы не можете голосовать в опросах
Вы не можете прикреплять файлы к сообщениям
Вы не можете скачивать файлы