Срок / Livstid (Ulf Kvensler) [2012 г., триллер, драма, HDRip]

Ответить на тему
 

Каротажник ®

Стаж: 3 года 11 месяцев

Сообщений: 195

Симпатии: 211

Срок / Livstid


Год выпуска: 2012
Страна: Швеция
Жанр: триллер, драма
Продолжительность: 01:32:12
Перевод: Профессиональный (двухголосый)
Режиссер: Ulf Kvensler

Малин Крепин, Бьёрн Чьелльман, Лейф Андре, Кайса Эрнст, Эрик Йоханссон, Ричард Ульфзэтер, Феликс Энгстрём, Эллен Мэттссон, Йонас Мальмшё, Сандра Андреис

Жену Джулию, известного полицейского полицейского из Швейцарии, обвиняют в убийстве мужа. Все улики против нее, Джулии грозит пожизненное. Однако среди полиции нашлись здравомыслящие люди, которые утверждают, что это заговор, полисмена убила совсем другая женщина.

Качество: HDRip
Формат: AVI

Видео кодек: XviD
Аудио кодек: AC3

Видео: XviD,1917 kb/s, 720x400
Аудио: AC3, 192 kb/s (2 ch)

Media Info

Format : AVI
Format/Info : Audio Video Interleave
File size : 1.36 GiB
Duration : 1h 32mn
Overall bit rate : 2 119 Kbps
Writing application : VirtualDubMod 1.5.10.3 | www.virtualdub-fr.org || (build 2550/release)
Writing library : VirtualDubMod build 2550/release
Video #0
ID : 0
Format : MPEG-4 Visual
Format profile : Advanced [email protected]
Format settings, BVOP : 1
Format settings, QPel : No
Format settings, GMC : No warppoints
Format settings, Matrix : Default (H.263)
Codec ID : XVID
Codec ID/Hint : XviD
Duration : 1h 32mn
Bit rate : 1 917 Kbps
Width : 720 pixels
Height : 400 pixels
Display aspect ratio : 16:9
Frame rate : 24.000 fps
Color space : YUV
Chroma subsampling : 4:2:0
Bit depth : 8 bits
Scan type : Progressive
Compression mode : Lossy
Bits/(Pixel*Frame) : 0.277
Stream size : 1.24 GiB (90%)
Writing library : XviD 1.2.1 (UTC 2008-12-04)
Audio #1
ID : 1
Format : AC-3
Format/Info : Audio Coding 3
Mode extension : CM (complete main)
Format settings, Endianness : Big
Codec ID : 2000
Duration : 1h 32mn
Bit rate mode : Constant
Bit rate : 192 Kbps
Channel(s) : 2 channels
Channel positions : Front: L R
Sampling rate : 48.0 KHz
Bit depth : 16 bits
Compression mode : Lossy
Stream size : 127 MiB (9%)
Alignment : Split accross interleaves
Interleave, duration : 42 ms (1.00 video frame)
Interleave, preload duration : 500 ms

Скриншоты


Создавать темы 16-Дек-2013 20:42

[Профиль]  [ЛС] 
Показать сообщения:    
Ответить на тему

Текущее время: 25-Сен 02:13

Часовой пояс: UTC + 5



Вы не можете начинать темы
Вы не можете отвечать на сообщения
Вы не можете редактировать свои сообщения
Вы не можете удалять свои сообщения
Вы не можете голосовать в опросах
Вы не можете прикреплять файлы к сообщениям
Вы не можете скачивать файлы