В осаде / Suddenly (Уве Болл) [2013 г., Триллер, HDRip]

Ответить на тему
 

leon_1991 ®

Стаж: 5 лет 2 месяца

Сообщений: 36

Симпатии: 1

В осаде / Suddenly
Год выпуска: 2013
Страна: США, Канада
Жанр: Триллер
Продолжительность: 01:30:09
Перевод: Профессиональный (многоголосый) - лицензия
Режиссер: Уве Болл
В ролях: Дон Маккэй, Коул Кокер, Тайрон Лейтсо, Рэй Лиотта, Эрин Карплак, Доминик Пёрселл, Майкл Паре, Стив Бачич, Гари Чок, Брендан Флетчер
Описание: Четверо убийц во главе с Бароном, представляются агентами секретной службы, чтобы реквизировать дом вдовы Эллен. Ее дом играет роль снайперской позиции в их плане покушения на президента во время его визита в маленький городок под названием Садденли. Убийцы провели всех местных полицейских, кроме одного — пьяницы Тодда, который служил вместе с покойным супругом Эллен…
Качество: HDRip
Формат: AVI
Видео кодек: XviD
Аудио кодек: AC3
Видео: XviD, 1702 kb/s, 720 x 400
Аудио: Russian AC3, 448 kb/s (6 ch)
Премьера Мир: 8 августа 2013
Релиз на DVD: 12 декабря 2013, «CP Дистрибуция», ...

MediaInfo

General
Complete name : D:\video\V.osade.2013.P.HDRip.1400Mb.avi
Format : AVI
Format/Info : Audio Video Interleave
File size : 1.36 GiB
Duration : 1h 30mn
Overall bit rate : 2 160 Kbps
Writing application : VirtualDubMod 1.5.10.2 (build 2540/release)
Writing library : VirtualDubMod build 2540/release
Video
ID : 0
Format : MPEG-4 Visual
Format profile : Advanced [email protected]
Format settings, BVOP : Yes
Format settings, QPel : No
Format settings, GMC : No warppoints
Format settings, Matrix : Default (H.263)
Codec ID : XVID
Codec ID/Hint : XviD
Duration : 1h 30mn
Bit rate : 1 702 Kbps
Width : 720 pixels
Height : 400 pixels
Display aspect ratio : 16:9
Frame rate : 23.976 fps
Color space : YUV
Chroma subsampling : 4:2:0
Bit depth : 8 bits
Scan type : Progressive
Bits/(Pixel*Frame) : 0.247
Stream size : 1.07 GiB (79%)
Writing library : XviD 1.2.1 (UTC 2008-12-04)
Audio
ID : 1
Format : AC-3
Format/Info : Audio Coding 3
Mode extension : CM (complete main)
Codec ID : 2000
Duration : 1h 30mn
Bit rate mode : Constant
Bit rate : 448 Kbps
Channel(s) : 6 channels
Channel positions : Front: L C R, Side: L R, LFE
Sampling rate : 48.0 KHz
Stream size : 289 MiB (21%)
Alignment : Split accross interleaves
Interleave, duration : 42 ms (1.00 video frame)
Interleave, preload duration : 500 ms

Скриншоты



Последний раз редактировалось: leon_1991 (2013-12-16 22:25), всего редактировалось 2 раз(а)

Создавать темы 16-Дек-2013 22:01

[Профиль]  [ЛС] 

olim5631

Стаж: 4 года 9 месяцев

Сообщений: 120

Симпатии: 1

по скринам кажется, что это очередной второстортный фильм

Создавать темы 16-Дек-2013 22:09

[Профиль]  [ЛС] 

igor1968

Стаж: 5 лет 9 месяцев

Сообщений: 366

Симпатии: 197

Не против если помогу с раздачей?
и "MI" выложи
премьера
8 августа 2013
релиз на DVD
12 декабря 2013, «CP Дистрибуция», ...
 


Последний раз редактировалось: igor1968 (2013-12-16 22:20), всего редактировалось 1 раз

Создавать темы 16-Дек-2013 22:15

[Профиль]  [ЛС] 

leon_1991 ®

Стаж: 5 лет 2 месяца

Сообщений: 36

Симпатии: 1

Не против если помогу с раздачей?
и "MI" выложи
нет не против

Создавать темы 16-Дек-2013 22:19

[Профиль]  [ЛС] 

dwerty

Стаж: 6 лет 4 месяца

Сообщений: 39

Симпатии: 5

сейчас президент сша это чисто номинальная функция.
попка, который ничего не решает.
откель столько пафоса в хуливуде.
Президенты там никогда особо ничего не решали, всем управляют массонские ложи)))ууууу

Создавать темы 16-Дек-2013 23:27

[Профиль]  [ЛС] 

abut

Стаж: 4 года

Сообщений: 27

Симпатии: 7

Уве Болл - этим все сказано. Более худшего режиссера не могло родиться на Земле...

Создавать темы 16-Дек-2013 23:31

[Профиль]  [ЛС] 

vertu

Стаж: 4 года 10 месяцев

Сообщений: 5

У Уве пару фильмов есть нормальных: Постал и Ярость

Создавать темы 16-Дек-2013 23:41

[Профиль]  [ЛС] 

pct

Стаж: 6 лет 10 месяцев

Сообщений: 120

Симпатии: 12

+1
"Нападение на Уолл-стрит" тоже неплох.

Создавать темы 17-Дек-2013 18:31

[Профиль]  [ЛС] 

Star Line

Стаж: 4 года 2 месяца

Сообщений: 136

Симпатии: 26

Зато в супер сериале снимался Доминик. в Побеге из Тюрьмы

Создавать темы 17-Дек-2013 19:14

[Профиль]  [ЛС] 

Vovo4ka

Стаж: 6 лет 4 месяца

Сообщений: 160

Симпатии: 11

Кто посмотрел, отпишитесь как фильм?

Создавать темы 17-Дек-2013 20:09

[Профиль]  [ЛС] 
Показать сообщения:    
Ответить на тему

Текущее время: 15-Дек 13:31

Часовой пояс: UTC + 5



Вы не можете начинать темы
Вы не можете отвечать на сообщения
Вы не можете редактировать свои сообщения
Вы не можете удалять свои сообщения
Вы не можете голосовать в опросах
Вы не можете прикреплять файлы к сообщениям
Вы не можете скачивать файлы