Риддик / Riddick (Дэвид Туи / David Twohy) [2013, США, фантастика, боевик, триллер, WEB-DLRip] Dub (iTunes Russian)

Ответить на тему
 

Suxrob89 ®

Стаж: 7 лет 1 месяц

Сообщений: 933

Симпатии: 564

-Риддик / Riddick-«Лучший способ отомстить - остаться в живых»- - Страна: США / Universal Pictures, Radar Pictures, One Race Productions
Жанр: фантастика, боевик, триллер
Год выпуска: 2013
Продолжительность: 01:58:30
Перевод: Профессиональный (дублированный) [iTunes Russian]
Cубтитры: нет
Оригинальная аудиодорожка: нет-Режиссер: Дэвид Туи / David Twohy-В ролях: Вин Дизель, Карл Урбан, Хорди Молья, Мэтью Нэйбл, Кэти Сакхофф, Дэйв Батиста, Букем Вудбайн, Рауль Трухильо, Конрад Пла, Дэнни Бланко-Описание: Преданный своими и брошенный умирать на пустынной планете, Риддик сражается с хищниками за жизнь и становится сильнее и опаснее себя прежнего. Открывшие на него охоту галактические наемники оказываются пешками в грандиозном плане отмщения. С врагами, возникающими на его пути тогда, когда это нужно самому Риддику, он начинает поход во имя мести, чтобы в конечном счете вернуться на родную Фурию и спасти ее от уничтожения.- -Качество видео: WEB-DLRip
Формат видео: AVI
Видео: 640x368 (1.74:1), 24 fps, XviD build 50 ~1366 kbps avg, 0.24 bit/pixel
Аудио: 48 kHz, AC3 Dolby Digital, 6 ch, ~384 kbps

MediaInfo

D:\R1dd1k.2013.D.WEB-DLRip.1.46Gb.avi
General
Complete name : D:\R1dd1k.2013.D.WEB-DLRip.1.46Gb.avi
Format : AVI
Format/Info : Audio Video Interleave
File size : 1.46 GiB
Duration : 1h 58mn
Overall bit rate : 1 760 Kbps
Writing application : VirtualDubMod 1.5.10.2 (build 2540/release)
Writing library : VirtualDubMod build 2540/release
Video #0
ID : 0
Format : MPEG-4 Visual
Format profile : Advanced [email protected]
Format settings, BVOP : 2
Format settings, QPel : No
Format settings, GMC : No warppoints
Format settings, Matrix : Custom
Codec ID : XVID
Codec ID/Hint : XviD
Duration : 1h 58mn
Bit rate : 1 367 Kbps
Width : 640 pixels
Height : 368 pixels
Display aspect ratio : 1.739
Frame rate : 24.000 fps
Color space : YUV
Chroma subsampling : 4:2:0
Bit depth : 8 bits
Scan type : Progressive
Compression mode : Lossy
Bits/(Pixel*Frame) : 0.242
Stream size : 1.13 GiB (78%)
Writing library : XviD 1.2.1 (UTC 2008-12-04)
Audio #1
ID : 1
Format : AC-3
Format/Info : Audio Coding 3
Mode extension : CM (complete main)
Format settings, Endianness : Big
Codec ID : 2000
Duration : 1h 58mn
Bit rate mode : Constant
Bit rate : 384 Kbps
Channel(s) : 6 channels
Channel positions : Front: L C R, Side: L R, LFE
Sampling rate : 48.0 KHz
Bit depth : 16 bits
Compression mode : Lossy
Stream size : 325 MiB (22%)
Alignment : Split accross interleaves
Interleave, duration : 42 ms (1.00 video frame)
Interleave, preload duration : 500 ms

Скриншот с названием фильма

Скриншоты



Последний раз редактировалось: Suxrob89 (2013-12-17 19:01), всего редактировалось 1 раз

Создавать темы 17-Дек-2013 18:52

[Профиль]  [ЛС] 

BendeR98

Стаж: 4 года 10 месяцев

Сообщений: 281

Симпатии: 10

Это ещё не лицуха?

Создавать темы 17-Дек-2013 20:09

[Профиль]  [ЛС] 

victor0778

Стаж: 6 лет 7 месяцев

Сообщений: 1670

Симпатии: 142

картинка не айс

Создавать темы 17-Дек-2013 20:19

[Профиль]  [ЛС] 

TimaK

Стаж: 6 лет 4 месяца

Сообщений: 129

Симпатии: 23

Специально второй скрин поставил да? Типо замануха?)

Создавать темы 17-Дек-2013 22:08

[Профиль]  [ЛС] 

zverblackboxfinder

Стаж: 3 года 11 месяцев

Сообщений: 31

Симпатии: 1

фильм крут. СПАСИБО!

Создавать темы 26-Дек-2013 15:39

[Профиль]  [ЛС] 
Показать сообщения:    
Ответить на тему

Текущее время: 20-Сен 16:14

Часовой пояс: UTC + 5



Вы не можете начинать темы
Вы не можете отвечать на сообщения
Вы не можете редактировать свои сообщения
Вы не можете удалять свои сообщения
Вы не можете голосовать в опросах
Вы не можете прикреплять файлы к сообщениям
Вы не можете скачивать файлы