The Victoria`s Secret Fashion Show (Hamish Hamilton) [2013, Музыкальное fashion-шоу, HDTVR

Ответить на тему
 

Alcatraz ®

Стаж: 6 лет 4 месяца

Сообщений: 54

Симпатии: 7

The Victoria`s Secret Fashion Show (Hamish Hamilton) [2013, Музыкальное fashion-шоу, HDTVR
Год выпуска: 2013
Страна: США
Жанр: Музыкальное fashion-шоу
Продолжительность: 00:43:04
Перевод: Не требуется
Русские субтитры: нет
Режиссер: Hamish Hamilton
Описание: Раз в году модный мир с нетерпением ожидает явления ангелов Victoria Secret – традиционного феерического шоу от знаменитой бельевой марки. Для любой модели участие в показе VS – заветная мечта и показатель успеха в профессии, так как из года в год в дефиле участвуют лишь лучшие из лучших. Список 2013, как обычно, впечатляет – Кэндис Свейнпол, Алессандра Амбросио, Адриана Лима, Карли Клосс и многие, многие другие сногсшибательные красотки, примерившие ангельские крылья. В этом году они демонстрировали новую коллекцию марки в сопровождении песен Тейлор Свифт, также на шоу играли дерзкие Fall Out Boy и начинающие звезды A Great Big World.
Качество: HDTVRip
Формат: MKV
Видео: AVC, 1280х720, 16:9, 4355 Кбит/сек, 29,970 кадров/сек
Аудио: AC-3, 384 Кбит/сек, 48,0 КГц, 6 каналов

Скриншоты

MediaInfo

Format : Matroska
Format version : Version 4 / Version 2
File size : 1.45 GiB
Duration : 43mn 4s
Overall bit rate : 4 835 Kbps
Encoded date : UTC 2013-12-11 05:24:25
Writing application : mkvmerge v6.2.0 ('Promised Land') built on Apr 28 2013 08:01:15
Writing library : libebml v1.3.0 + libmatroska v1.4.0
Video
ID : 1
Format : AVC
Format/Info : Advanced Video Codec
Format profile : [email protected]
Format settings, CABAC : Yes
Format settings, ReFrames : 5 frames
Codec ID : V_MPEG4/ISO/AVC
Duration : 43mn 4s
Bit rate : 4 355 Kbps
Width : 1 280 pixels
Height : 720 pixels
Display aspect ratio : 16:9
Frame rate mode : Constant
Frame rate : 29.970 fps
Color space : YUV
Chroma subsampling : 4:2:0
Bit depth : 8 bits
Scan type : Progressive
Bits/(Pixel*Frame) : 0.158
Stream size : 1.31 GiB (90%)
Writing library : x264 core 140 r2377 1ca7bb9
Encoding settings : cabac=1 / ref=5 / deblock=1:0:0 / analyse=0x3:0x113 / me=umh / subme=8 / psy=1 / psy_rd=1.00:0.00 / mixed_ref=1 / me_range=16 / chroma_me=1 / trellis=1 / 8x8dct=1 / cqm=0 / deadzone=21,11 / fast_pskip=1 / chroma_qp_offset=-2 / threads=12 / lookahead_threads=2 / sliced_threads=0 / nr=0 / decimate=1 / interlaced=0 / bluray_compat=0 / constrained_intra=0 / bframes=3 / b_pyramid=2 / b_adapt=2 / b_bias=0 / direct=3 / weightb=1 / open_gop=0 / weightp=2 / keyint=250 / keyint_min=25 / scenecut=40 / intra_refresh=0 / rc_lookahead=50 / rc=crf / mbtree=1 / crf=22.0 / qcomp=0.60 / qpmin=0 / qpmax=69 / qpstep=4 / ip_ratio=1.40 / aq=1:1.00
Language : English
Default : Yes
Forced : No
Matrix coefficients : BT.709
Audio
ID : 2
Format : AC-3
Format/Info : Audio Coding 3
Mode extension : CM (complete main)
Format settings, Endianness : Big
Codec ID : A_AC3
Duration : 43mn 4s
Bit rate mode : Constant
Bit rate : 384 Kbps
Channel count : 6 channels
Channel positions : Front: L C R, Side: L R, LFE
Sampling rate : 48.0 KHz
Bit depth : 16 bits
Compression mode : Lossy
Stream size : 118 MiB (8%)
Default : Yes
Forced : No


Последний раз редактировалось: Alcatraz (2013-12-18 17:16), всего редактировалось 1 раз

Создавать темы 18-Дек-2013 14:19

[Профиль]  [ЛС] 

vanfank

Стаж: 4 года 3 месяца

Сообщений: 141

Симпатии: 5

а на Fashion TV уже показывали?

Создавать темы 18-Дек-2013 16:30

[Профиль]  [ЛС] 

Riot

Стаж: 4 года 11 месяцев

Сообщений: 29

Симпатии: 1

давно уже на fashion показывали, тайлор запомнил)

Создавать темы 18-Дек-2013 21:24

[Профиль]  [ЛС] 

thayurec

Стаж: 4 года 2 месяца

Сообщений: 11

Симпатии: 2

шустрила какой

Создавать темы 19-Дек-2013 08:03

[Профиль]  [ЛС] 
Показать сообщения:    
Ответить на тему

Текущее время: 20-Авг 20:21

Часовой пояс: UTC + 5



Вы не можете начинать темы
Вы не можете отвечать на сообщения
Вы не можете редактировать свои сообщения
Вы не можете удалять свои сообщения
Вы не можете голосовать в опросах
Вы не можете прикреплять файлы к сообщениям
Вы не можете скачивать файлы