Пираты Карибского моря: Квадрология / Pirates of the Caribbean: Quadrilogy [2003-2011 гг. фэнтези, боевик, приключения, BDRemux (1080p) / RUS-ENG]

Страницы :  1, 2  След.

Ответить на тему
 

Phantomhive ®

Стаж: 4 года 2 месяца

Сообщений: 218

Симпатии: 10

Пираты Карибского моря: Проклятие Черной жемчужины / Pirates of the Caribbean: The Curse of the Black Pearl
Год выпуска: 2003
Страна: США,
Режиссёр: Гор Вербински
Жанр: фэнтези, боевик, приключения
Продолжительность: 02:23:14
Перевод: Дублированный
Язык: Русский, английский-В ролях: Джонни Депп, Джеффри Раш, Орландо Блум, Кира Найтли, Джек Девенпорт, Джонатан Прайс, Ли Аренберг, Маккензи Крук, Дэмиан О’Хейр, Джиллз Нью-Описание: Жизнь харизматичного авантюриста, капитана Джека Воробья, полная увлекательных приключений, резко меняется, когда его заклятый враг — капитан Барбосса — похищает корабль Джека, Черную Жемчужину, а затем нападает на Порт Ройал и крадет прекрасную дочь губернатора, Элизабет Свонн.
Друг детства Элизабет, Уилл Тернер, вместе с Джеком возглавляет спасательную экспедицию на самом быстром корабле Британии, в попытке вызволить девушку из плена и заодно отобрать у злодея Черную Жемчужину. Вслед за этой парочкой отправляется амбициозный коммодор Норрингтон, который к тому же числится женихом Элизабет.
Однако Уилл не знает, что над Барбоссой висит вечное проклятие, при лунном свете превращающее его с командой в живых скелетов. Проклятье будет снято лишь тогда, когда украденное золото Ацтеков будет возвращено пиратами на старое место.-Рейтинг:
Кинопоиск: 8.494 (105 802)
IMDb: 8.00 (331 148)-Качество: BDRemux
Формат видео: AVC
Формат аудио: AC-3, DTS, PCM
Видео: 1920x1080, 21,1 Мбит/сек, 23,976 fps
Аудио №1: AC3 6 ch, 640 кб/с, 48000 Hz, (дублированный)
Аудио №2: DTS 6 ch, 755 кб/с, 48000 Hz, (многоголосый)
Аудио №3: DTS 6 ch, 755 кб/с, 48000 Hz, (одноголосый)
Аудио №4: DTS 6 ch, 1510 кб/с, 48000 Hz, (многоголосый)
Аудио №5: DTS 6 ch, 1510 кб/с, 48000 Hz, (оригинал)
Аудио №6: PCM 6 ch, 6912 кб/с, 48000 Hz, (многоголосый)
Аудио №7: PCM 6 ch, 6912 кб/с, 48000 Hz, (оригинал)
Аудио №8: AC-3 2 ch, 192 кб/с, 48000 Hz, (коменты)
Аудио №9: AC-3 2 ch, 192 кб/с, 48000 Hz, (коменты)
Аудио №10: AC-3 2 ch, 192 кб/с, 48000 Hz, (коменты)-

Награды

Оскар, 2004 год:
Номинации (5):
Лучшая мужская роль (Джонни Депп)
Лучший звук
Лучший монтаж звука
Лучшие визуальные эффекты
Лучший грим- Золотой глобус, 2004 год:
Номинации (1):
Лучшая мужская роль (комедия или мюзикл) (Джонни Депп)- Премия канала «MTV», 2004 год:
Победитель (1):
Лучшая мужская роль (Джонни Депп)
Номинации (5):
Женский прорыв года (Кира Найтли)
Лучшая комедийная роль (Джонни Депп)
Лучший злодей (Джеффри Раш)
Лучший фильм
Лучшая экранная команда (Джонни Депп, Орландо Блум)- Британская академия, 2004 год:
Победитель (1):
Лучший грим/прически
Номинации (4):
Лучшая мужская роль (Джонни Депп)
Лучшие костюмы
Лучший звук
Лучшие визуальные эффекты- Сатурн, 2004 год:
Победитель (1):
Лучшие костюмы
Номинации (10):
Лучший актер (Джонни Депп)
Лучший актер второго плана (Джеффри Раш)
Лучшая актриса второго плана (Кира Найтли)
Лучший режиссер (Гор Вербински)
Лучшие спецэффекты
Лучшая музыка
Лучший фэнтези-фильм
Лучший грим
Лучшее специальное DVD-издание
Премия журнала Cinescape (Genre Face of the Future) за лучшую женскую роль (Кира Найтли)

Подробные тех.данные:

General
ID : 1 (0x1)
Complete name : D:\Пираты карибского моря\Пираты Карибского моря 1. Проклятие черной жемчужины.m2ts
Format : BDAV
Format/Info : Blu-ray Video
File size : 42.4 GiB
Duration : 2h 23mn
Overall bit rate mode : Variable
Overall bit rate : 42.4 Mbps
Maximum Overall bit rate : 35.5 Mbps
Video
ID : 4113 (0x1011)
Menu ID : 1 (0x1)
Format : AVC
Format/Info : Advanced Video Codec
Format profile : [email protected]
Format settings, CABAC : Yes
Format settings, ReFrames : 3 frames
Codec ID : 27
Duration : 2h 23mn
Bit rate mode : Variable
Bit rate : 21.1 Mbps
Maximum bit rate : 40.0 Mbps
Width : 1 920 pixels
Height : 1 080 pixels
Display aspect ratio : 16:9
Frame rate : 23.976 fps
Color space : YUV
Chroma subsampling : 4:2:0
Bit depth : 8 bits
Scan type : Progressive
Bits/(Pixel*Frame) : 0.425
Stream size : 21.2 GiB (50%)
Audio #1
ID : 4352 (0x1100)
Menu ID : 1 (0x1)
Format : AC-3
Format/Info : Audio Coding 3
Mode extension : CM (complete main)
Codec ID : 129
Duration : 2h 23mn
Bit rate mode : Constant
Bit rate : 640 Kbps
Channel(s) : 6 channels
Channel positions : Front: L C R, Side: L R, LFE
Sampling rate : 48.0 KHz
Bit depth : 16 bits
Compression mode : Lossy
Stream size : 656 MiB (2%)
Language : Russian
Audio #2
ID : 4353 (0x1101)
Menu ID : 1 (0x1)
Format : DTS
Format/Info : Digital Theater Systems
Codec ID : 130
Duration : 2h 23mn
Bit rate mode : Constant
Bit rate : 755 Kbps
Channel(s) : 6 channels
Channel positions : Front: L C R, Side: L R, LFE
Sampling rate : 48.0 KHz
Bit depth : 24 bits
Compression mode : Lossy
Stream size : 773 MiB (2%)
Language : Russian
Audio #3
ID : 4354 (0x1102)
Menu ID : 1 (0x1)
Format : DTS
Format/Info : Digital Theater Systems
Codec ID : 130
Duration : 2h 23mn
Bit rate mode : Constant
Bit rate : 755 Kbps
Channel(s) : 6 channels
Channel positions : Front: L C R, Side: L R, LFE
Sampling rate : 48.0 KHz
Bit depth : 24 bits
Compression mode : Lossy
Stream size : 773 MiB (2%)
Language : Russian
Audio #4
ID : 4355 (0x1103)
Menu ID : 1 (0x1)
Format : DTS
Format/Info : Digital Theater Systems
Codec ID : 130
Duration : 2h 23mn
Bit rate mode : Constant
Bit rate : 1 510 Kbps
Channel(s) : 6 channels
Channel positions : Front: L C R, Side: L R, LFE
Sampling rate : 48.0 KHz
Bit depth : 24 bits
Compression mode : Lossy
Stream size : 1.51 GiB (4%)
Language : Russian
Audio #5
ID : 4356 (0x1104)
Menu ID : 1 (0x1)
Format : DTS
Format/Info : Digital Theater Systems
Codec ID : 130
Duration : 2h 23mn
Bit rate mode : Constant
Bit rate : 1 510 Kbps
Channel(s) : 6 channels
Channel positions : Front: L C R, Side: L R, LFE
Sampling rate : 48.0 KHz
Bit depth : 24 bits
Compression mode : Lossy
Stream size : 1.51 GiB (4%)
Language : English
Audio #6
ID : 4357 (0x1105)
Menu ID : 1 (0x1)
Format : PCM
Format settings, Endianness : Big
Format settings, Sign : Signed
Muxing mode : Blu-ray
Codec ID : 128
Duration : 2h 23mn
Bit rate mode : Constant
Bit rate : 6 912 Kbps
Channel(s) : 6 channels
Channel positions : Front: L C R, Side: L R, LFE
Sampling rate : 48.0 KHz
Bit depth : 24 bits
Stream size : 6.92 GiB (16%)
Language : Russian
Audio #7
ID : 4358 (0x1106)
Menu ID : 1 (0x1)
Format : PCM
Format settings, Endianness : Big
Format settings, Sign : Signed
Muxing mode : Blu-ray
Codec ID : 128
Duration : 2h 23mn
Bit rate mode : Constant
Bit rate : 6 912 Kbps
Channel(s) : 6 channels
Channel positions : Front: L C R, Side: L R, LFE
Sampling rate : 48.0 KHz
Bit depth : 24 bits
Stream size : 6.92 GiB (16%)
Language : English
Audio #8
ID : 4359 (0x1107)
Menu ID : 1 (0x1)
Format : AC-3
Format/Info : Audio Coding 3
Mode extension : CM (complete main)
Codec ID : 129
Duration : 2h 23mn
Bit rate mode : Constant
Bit rate : 192 Kbps
Channel(s) : 2 channels
Channel positions : Front: L R
Sampling rate : 48.0 KHz
Bit depth : 16 bits
Compression mode : Lossy
Delay relative to video : 24ms
Stream size : 197 MiB (0%)
Language : English
Audio #9
ID : 4360 (0x1108)
Menu ID : 1 (0x1)
Format : AC-3
Format/Info : Audio Coding 3
Mode extension : CM (complete main)
Codec ID : 129
Duration : 2h 23mn
Bit rate mode : Constant
Bit rate : 192 Kbps
Channel(s) : 2 channels
Channel positions : Front: L R
Sampling rate : 48.0 KHz
Bit depth : 16 bits
Compression mode : Lossy
Stream size : 197 MiB (0%)
Language : English
Audio #10
ID : 4361 (0x1109)
Menu ID : 1 (0x1)
Format : AC-3
Format/Info : Audio Coding 3
Mode extension : CM (complete main)
Codec ID : 129
Duration : 2h 23mn
Bit rate mode : Constant
Bit rate : 192 Kbps
Channel(s) : 2 channels
Channel positions : Front: L R
Sampling rate : 48.0 KHz
Bit depth : 16 bits
Compression mode : Lossy
Delay relative to video : 24ms
Stream size : 197 MiB (0%)
Language : English
Text
ID : 4608 (0x1200)
Menu ID : 1 (0x1)
Format : PGS
Codec ID : 144
Delay relative to video : 6s 506ms
Language : Russian

Скриншоты

---Пираты Карибского моря: Сундук мертвеца/Pirates of the Caribbean: Dead Man's Chest
Год выпуска: 2006
Страна: США,
Режиссёр: Гор Вербински
Жанр: фэнтези, боевик, приключения
Продолжительность: 02:30:39
Перевод: Дублированный
Язык: Русский, английский-В ролях: Джонни Депп, Орландо Блум, Кира Найтли, Джек Девенпорт, Билл Найи, Джонатан Прайс, Ли Аренберг, Маккензи Крук, Кевин МакНэлли, Дэвид Бэйли-Описание: Вновь оказавшись в ирреальном мире, лихой капитан Джек Воробей неожиданно узнает, что является должником легендарного капитана «Летучего Голландца» Дэйви Джонса. Джек должен в кратчайшие сроки решить эту проблему, иначе ему грозит вечное проклятие и рабское существование после смерти. Вдобавок ко всему, срывается свадьба Уилла Тернера и Элизабет Суонн, которые вынуждены составить Джеку компанию в его злоключениях…-Рейтинг:
Кинопоиск: 8.159 (82 955)
IMDb: 7.30 (215 140)-Качество: BDRemux
Формат видео: AVC
Формат аудио: AC-3, DTS, PCM
Видео: 1920x1080, 19,7 Мбит/сек, 23,976 fps
Аудио №1: AC-3 6 ch, 640 кб/с, 48000 Hz, (дублированный)
Аудио №2: AC-3 6 ch, 640 кб/с, 48000 Hz, (одноголосый)
Аудио №3: DTS 6 ch, 755 кб/с, 48000 Hz, (многоголосый)
Аудио №4: DTS 6 ch, 1510 кб/с, 48000 Hz, (оригинал)
Аудио №5: PCM 6 ch, 6912 кб/с, 48000 Hz, (оригинал)
Аудио №6: AC-3 2 ch, 192 кб/с, 48000 Hz, (коменты)
Субтитры: английские-

Награды

Оскар, 2007 год:
Победитель (1):
Лучшие визуальные эффекты
Номинации (3):
Лучшие декорации
Лучший звук
Лучший монтаж звука- Золотой глобус, 2007 год :
Номинации (1):
Лучшая мужская роль (комедия или мюзикл) (Джонни Депп)- Премия канала «MTV», 2007 год:
Победитель (2):
Лучший актер или актриса (Джонни Депп)
Лучший фильм
Номинации (2):
Лучший актер или актриса (Кира Найтли)
Лучший злодей (Билл Найи)- Британская академия, 2007 год:
Победитель (1):
Лучшие визуальные эффекты
Номинации (4):
Лучшие костюмы
Лучший звук
Лучшая работа художника-постановщика
Лучший грим/прически- Кинонаграды «MTV-Россия», 2007 год:
Победитель (1):
Лучший фильм на иностранном языке- Жорж, 2007 год:
Победитель (1):
Лучший высокобюджетный/зрелищный фильм- Сатурн, 2007 год:
Победитель (1):
Лучшие спецэффекты
Номинации (4):
Лучший актер второго плана (Билл Найи)
Лучшие костюмы
Лучший фэнтези-фильм
Лучший грим

Подробные тех.данные:

General
ID : 1 (0x1)
Complete name : D:\Пираты карибского моря\Пираты Карибского моря 2. Сундук мертвеца.m2ts
Format : BDAV
Format/Info : Blu-ray Video
File size : 33.3 GiB
Duration : 2h 30mn
Overall bit rate mode : Variable
Overall bit rate : 31.6 Mbps
Maximum Overall bit rate : 35.5 Mbps
Video
ID : 4113 (0x1011)
Menu ID : 1 (0x1)
Format : AVC
Format/Info : Advanced Video Codec
Format profile : [email protected]
Format settings, CABAC : Yes
Format settings, ReFrames : 3 frames
Format settings, GOP : M=3, N=24
Codec ID : 27
Duration : 2h 30mn
Bit rate mode : Variable
Bit rate : 19.7 Mbps
Maximum bit rate : 40.0 Mbps
Width : 1 920 pixels
Height : 1 080 pixels
Display aspect ratio : 16:9
Frame rate : 23.976 fps
Color space : YUV
Chroma subsampling : 4:2:0
Bit depth : 8 bits
Scan type : Progressive
Bits/(Pixel*Frame) : 0.396
Stream size : 20.7 GiB (62%)
Audio #1
ID : 4352 (0x1100)
Menu ID : 1 (0x1)
Format : AC-3
Format/Info : Audio Coding 3
Mode extension : CM (complete main)
Codec ID : 129
Duration : 2h 30mn
Bit rate mode : Constant
Bit rate : 640 Kbps
Channel(s) : 6 channels
Channel positions : Front: L C R, Side: L R, LFE
Sampling rate : 48.0 KHz
Bit depth : 16 bits
Compression mode : Lossy
Stream size : 690 MiB (2%)
Language : Russian
Audio #2
ID : 4353 (0x1101)
Menu ID : 1 (0x1)
Format : AC-3
Format/Info : Audio Coding 3
Mode extension : CM (complete main)
Codec ID : 129
Duration : 2h 30mn
Bit rate mode : Constant
Bit rate : 640 Kbps
Channel(s) : 6 channels
Channel positions : Front: L C R, Side: L R, LFE
Sampling rate : 48.0 KHz
Bit depth : 16 bits
Compression mode : Lossy
Stream size : 690 MiB (2%)
Language : Russian
Audio #3
ID : 4354 (0x1102)
Menu ID : 1 (0x1)
Format : DTS
Format/Info : Digital Theater Systems
Codec ID : 130
Duration : 2h 30mn
Bit rate mode : Constant
Bit rate : 755 Kbps
Channel(s) : 6 channels
Channel positions : Front: L C R, Side: L R, LFE
Sampling rate : 48.0 KHz
Bit depth : 24 bits
Compression mode : Lossy
Stream size : 813 MiB (2%)
Language : Russian
Audio #4
ID : 4355 (0x1103)
Menu ID : 1 (0x1)
Format : DTS
Format/Info : Digital Theater Systems
Codec ID : 130
Duration : 2h 30mn
Bit rate mode : Constant
Bit rate : 1 510 Kbps
Channel(s) : 6 channels
Channel positions : Front: L C R, Side: L R, LFE
Sampling rate : 48.0 KHz
Bit depth : 24 bits
Compression mode : Lossy
Stream size : 1.59 GiB (5%)
Language : English
Audio #5
ID : 4356 (0x1104)
Menu ID : 1 (0x1)
Format : PCM
Format settings, Endianness : Big
Format settings, Sign : Signed
Muxing mode : Blu-ray
Codec ID : 128
Duration : 2h 30mn
Bit rate mode : Constant
Bit rate : 6 912 Kbps
Channel(s) : 6 channels
Channel positions : Front: L C R, Side: L R, LFE
Sampling rate : 48.0 KHz
Bit depth : 24 bits
Stream size : 7.27 GiB (22%)
Language : English
Audio #6
ID : 4357 (0x1105)
Menu ID : 1 (0x1)
Format : AC-3
Format/Info : Audio Coding 3
Mode extension : CM (complete main)
Codec ID : 129
Duration : 2h 30mn
Bit rate mode : Constant
Bit rate : 192 Kbps
Channel(s) : 2 channels
Channel positions : Front: L R
Sampling rate : 48.0 KHz
Bit depth : 16 bits
Compression mode : Lossy
Stream size : 207 MiB (1%)
Language : English
Text
ID : 4610 (0x1202)
Menu ID : 1 (0x1)
Format : PGS
Codec ID : 144
Delay relative to video : 5s 172ms
Language : English

Скриншоты:

---Пираты Карибского моря: На краю Света/Pirates of the Caribbean: At World's End
Год выпуска: 2007
Страна: США,
Режиссёр: Гор Вербински
Жанр: фэнтези, боевик, приключения
Продолжительность: 02:48:30
Перевод: Дублированный
Язык: Русский, английский-В ролях: Джонни Депп, Джеффри Раш, Орландо Блум, Кира Найтли, Джек Девенпорт, Билл Найи, Джонатан Прайс, Ли Аренберг, Маккензи Крук, Кевин МакНэлли-Описание: Новые приключения Джека Воробья и его друзей Уилла Тернера и Элизабет Суонн. На этот раз Уиллу и Элизабет придется объединиться с самим Капитаном Барбоссой для того, чтобы отправиться на край света и спасти своего друга — Джека. Ситуация осложняется тем, что Элизабет попадает к сингапурским пиратам…-Рейтинг:
Кинопоиск: 8.042 (77 809)
IMDb: 6.60 (109 862)-Качество: BDRemux
Формат видео: AVC
Формат аудио: AC-3, DTS, PCM
Видео: 1920x1080, 22,8 Мбит/сек, 23,976 fps
Аудио №1: AC-3 6 ch, 640 кб/с, 48000 Hz, (дублированный)
Аудио №2: AC-3 6 ch, 640 кб/с, 48000 Hz, (одноголосый)
Аудио №3: DTS 6 ch, 755 кб/с, 48000 Hz, (многоголосый)
Аудио №4: DTS 6 ch, 1510 кб/с, 48000 Hz, (оригинал)
Аудио №5: PCM 6 ch, 6912 кб/с, 48000 Hz, (оригинал)-

Награды

Оскар, 2008 год:
Номинации (2):
Лучшие визуальные эффекты
Лучший грим- Премия канала «MTV», 2008 год:
Победитель (1):
Лучшая комедийная роль (Джонни Депп)
Номинации (2):
Лучшая женская роль (Кира Найтли)
Лучший фильм

Подробные тех.данные:

General
ID : 1 (0x1)
Complete name : D:\Пираты карибского моря\Пираты Карибского моря 3. На краю Света.m2ts
Format : BDAV
Format/Info : Blu-ray Video
File size : 40.7 GiB
Duration : 2h 48mn
Overall bit rate mode : Variable
Overall bit rate : 34.6 Mbps
Maximum Overall bit rate : 35.5 Mbps
Video
ID : 4113 (0x1011)
Menu ID : 1 (0x1)
Format : AVC
Format/Info : Advanced Video Codec
Format profile : [email protected]
Format settings, CABAC : Yes
Format settings, ReFrames : 3 frames
Format settings, GOP : M=3, N=24
Codec ID : 27
Duration : 2h 48mn
Bit rate mode : Variable
Bit rate : 22.8 Mbps
Maximum bit rate : 40.0 Mbps
Width : 1 920 pixels
Height : 1 080 pixels
Display aspect ratio : 16:9
Frame rate : 23.976 fps
Color space : YUV
Chroma subsampling : 4:2:0
Bit depth : 8 bits
Scan type : Progressive
Bits/(Pixel*Frame) : 0.458
Stream size : 26.8 GiB (66%)
Audio #1
ID : 4352 (0x1100)
Menu ID : 1 (0x1)
Format : AC-3
Format/Info : Audio Coding 3
Mode extension : CM (complete main)
Codec ID : 129
Duration : 2h 48mn
Bit rate mode : Constant
Bit rate : 640 Kbps
Channel(s) : 6 channels
Channel positions : Front: L C R, Side: L R, LFE
Sampling rate : 48.0 KHz
Bit depth : 16 bits
Compression mode : Lossy
Stream size : 771 MiB (2%)
Language : Russian
Audio #2
ID : 4353 (0x1101)
Menu ID : 1 (0x1)
Format : AC-3
Format/Info : Audio Coding 3
Mode extension : CM (complete main)
Codec ID : 129
Duration : 2h 48mn
Bit rate mode : Constant
Bit rate : 640 Kbps
Channel(s) : 6 channels
Channel positions : Front: L C R, Side: L R, LFE
Sampling rate : 48.0 KHz
Bit depth : 16 bits
Compression mode : Lossy
Stream size : 771 MiB (2%)
Language : Russian
Audio #3
ID : 4354 (0x1102)
Menu ID : 1 (0x1)
Format : DTS
Format/Info : Digital Theater Systems
Codec ID : 130
Duration : 2h 48mn
Bit rate mode : Constant
Bit rate : 755 Kbps
Channel(s) : 6 channels
Channel positions : Front: L C R, Side: L R, LFE
Sampling rate : 48.0 KHz
Bit depth : 24 bits
Compression mode : Lossy
Stream size : 909 MiB (2%)
Language : Russian
Audio #4
ID : 4355 (0x1103)
Menu ID : 1 (0x1)
Format : DTS
Format/Info : Digital Theater Systems
Codec ID : 130
Duration : 2h 48mn
Bit rate mode : Constant
Bit rate : 1 510 Kbps
Channel(s) : 6 channels
Channel positions : Front: L C R, Side: L R, LFE
Sampling rate : 48.0 KHz
Bit depth : 24 bits
Compression mode : Lossy
Stream size : 1.78 GiB (4%)
Language : English
Audio #5
ID : 4356 (0x1104)
Menu ID : 1 (0x1)
Format : PCM
Format settings, Endianness : Big
Format settings, Sign : Signed
Muxing mode : Blu-ray
Codec ID : 128
Duration : 2h 48mn
Bit rate mode : Constant
Bit rate : 6 912 Kbps
Channel(s) : 6 channels
Channel positions : Front: L C R, Side: L R, LFE
Sampling rate : 48.0 KHz
Bit depth : 24 bits
Stream size : 8.14 GiB (20%)
Language : English

Скриншоты:

---Пираты Карибского моря: На странных берегах/Pirates of the Caribbean: On Stranger Tides
Год выпуска: 2011
Страна: США,
Режиссёр: Роб Маршалл
Жанр: фэнтези, боевик, комедия, приключения
Продолжительность: 02:16:23
Перевод: Дублированный
Язык: Русский, украинский, английский-В ролях: Джонни Депп, Пенелопа Крус, Джеффри Раш, Иэн МакШейн, Кевин МакНэлли, Стивен Грэм, Сэм Клафлин, Астрид Берже-Фрисби, Кит Ричардс, Ричард Гриффитс-Описание: В новой истории о поисках истины, предательстве, вечной молодости и смертельной опасности капитану Джеку Воробью предстоит столкнуться с женщиной из своего прошлого Анжеликой. До самого конца не будет понятно, связывает ли их настоящая любовь, или же Анжелика искусно притворяется, чтобы вместе с Джеком добраться до таинственного источника вечной молодости.
Она силой принуждает капитана Джека Воробья взойти на корабль «Месть Королевы Анны», которым управляет коварный злодей Черная Борода. Наш герой оказывается в ситуации, когда он не знает, чего ему бояться больше — ужасного злодея или же свою давнюю подругу-Рейтинг:
Кинопоиск: 7.292 (50 970)
IMDb: 6.60 (109 862)-Качество: BDRemux
Формат видео: AVC
Формат аудио: AC-3, DTS
Видео: 1920x1080, 28,3 Мбит/сек, 23,976 fps
Аудио №1: AC-3 6 ch, 384 кб/с, 48000 Hz, (дублированный)
Аудио №2: AC-3 6 ch, 384 кб/с, 48000 Hz, (украинский)
Аудио №3: DTS 6 ch, 3607 Кбит/сек / 1510 Кбит/сек, 48000 Hz, (оригинал)
Аудио №4: AC-3 2 ch, 192 кб/с, 48000 Hz, (коменты)-

Подробные тех.данные:

General
ID : 1 (0x1)
Complete name : D:\Пираты карибского моря\Пираты Карибского моря 4. На странных берегах.m2ts
Format : BDAV
Format/Info : Blu-ray Video
File size : 32.7 GiB
Duration : 2h 16mn
Overall bit rate mode : Variable
Overall bit rate : 34.3 Mbps
Maximum Overall bit rate : 35.5 Mbps
Video
ID : 4113 (0x1011)
Menu ID : 1 (0x1)
Format : AVC
Format/Info : Advanced Video Codec
Format profile : [email protected]
Format settings, CABAC : Yes
Format settings, ReFrames : 4 frames
Codec ID : 27
Duration : 2h 16mn
Bit rate mode : Variable
Bit rate : 28.3 Mbps
Maximum bit rate : 34.0 Mbps
Width : 1 920 pixels
Height : 1 080 pixels
Display aspect ratio : 16:9
Frame rate : 23.976 fps
Color space : YUV
Chroma subsampling : 4:2:0
Bit depth : 8 bits
Scan type : Progressive
Bits/(Pixel*Frame) : 0.570
Stream size : 27.0 GiB (83%)
Audio #1
ID : 4352 (0x1100)
Menu ID : 1 (0x1)
Format : AC-3
Format/Info : Audio Coding 3
Mode extension : CM (complete main)
Codec ID : 129
Duration : 2h 16mn
Bit rate mode : Constant
Bit rate : 384 Kbps
Channel(s) : 6 channels
Channel positions : Front: L C R, Side: L R, LFE
Sampling rate : 48.0 KHz
Bit depth : 16 bits
Compression mode : Lossy
Stream size : 375 MiB (1%)
Language : Russian
Audio #2
ID : 4353 (0x1101)
Menu ID : 1 (0x1)
Format : AC-3
Format/Info : Audio Coding 3
Mode extension : CM (complete main)
Codec ID : 129
Duration : 2h 16mn
Bit rate mode : Constant
Bit rate : 384 Kbps
Channel(s) : 6 channels
Channel positions : Front: L C R, Side: L R, LFE
Sampling rate : 48.0 KHz
Bit depth : 16 bits
Compression mode : Lossy
Stream size : 375 MiB (1%)
Language : Ukrainian
Audio #3
ID : 4354 (0x1102)
Menu ID : 1 (0x1)
Format : DTS
Format/Info : Digital Theater Systems
Format profile : MA / Core
Muxing mode : Stream extension
Codec ID : 134
Duration : 2h 16mn
Bit rate mode : Variable
Bit rate : 3 607 Kbps / 1 510 Kbps
Channel(s) : 8 channels / 6 channels
Channel positions : Front: L C R, Side: L R, Back: L R, LFE / Front: L C R, Side: L R, LFE
Sampling rate : 48.0 KHz
Bit depth : 24 bits
Compression mode : Lossless / Lossy
Language : English
Audio #4
ID : 4355 (0x1103)
Menu ID : 1 (0x1)
Format : AC-3
Format/Info : Audio Coding 3
Mode extension : CM (complete main)
Codec ID : 129
Duration : 2h 16mn
Bit rate mode : Constant
Bit rate : 192 Kbps
Channel(s) : 2 channels
Channel positions : Front: L R
Sampling rate : 48.0 KHz
Bit depth : 16 bits
Compression mode : Lossy
Stream size : 187 MiB (1%)
Language : English

Скриншоты:

Создавать темы 18-Дек-2013 15:52

[Профиль]  [ЛС] 

Phantomhive ®

Стаж: 4 года 2 месяца

Сообщений: 218

Симпатии: 10

Прошу дат Золота!!! ap ag af

Создавать темы 18-Дек-2013 15:56

[Профиль]  [ЛС] 

San_dieGo

Стаж: 4 года 7 месяцев

Сообщений: 155

Симпатии: 2

Золото!

Создавать темы 18-Дек-2013 15:57

[Профиль]  [ЛС] 

Loky

Стаж: 4 года 1 месяц

Сообщений: 75

Симпатии: 8

Вес ниче так:):):)

Создавать темы 18-Дек-2013 16:09

[Профиль]  [ЛС] 

vanfank

Стаж: 4 года 3 месяца

Сообщений: 141

Симпатии: 5

4 часть это приквел, я сам смотрел. но не помню как они воскрисили Джека Воробья ?

Создавать темы 18-Дек-2013 16:35

[Профиль]  [ЛС] 

ZeroX

Стаж: 5 лет 4 месяца

Сообщений: 146

Симпатии: 3

Phantomhive, вот это релизчик.

Создавать темы 18-Дек-2013 16:40

[Профиль]  [ЛС] 

lil_MusiC_lil

Стаж: 3 года 10 месяцев

Сообщений: 52

Симпатии: 3

Золота да

Создавать темы 18-Дек-2013 16:41

[Профиль]  [ЛС] 

Phantomhive ®

Стаж: 4 года 2 месяца

Сообщений: 218

Симпатии: 10

ZeroX, спс старалсо!!! для вас ну для фанатов!!!

Создавать темы 18-Дек-2013 16:44

[Профиль]  [ЛС] 

Phantomhive ®

Стаж: 4 года 2 месяца

Сообщений: 218

Симпатии: 10

ну что ест желаюшие скачать?

Создавать темы 18-Дек-2013 16:48

[Профиль]  [ЛС] 

sharp_ssb

Стаж: 4 года 11 месяцев

Сообщений: 43

жаль, у меня хард 80 гб)))

Создавать темы 18-Дек-2013 16:57

[Профиль]  [ЛС] 

ZeroX

Стаж: 5 лет 4 месяца

Сообщений: 146

Симпатии: 3

Я бы скачал, но мне придется форматнуть весь винт, вместе с виндой ag

Создавать темы 18-Дек-2013 17:04

[Профиль]  [ЛС] 

annaula

Стаж: 4 года 3 месяца

Сообщений: 12

когда раздача?

Создавать темы 18-Дек-2013 17:10

[Профиль]  [ЛС] 

Phantomhive ®

Стаж: 4 года 2 месяца

Сообщений: 218

Симпатии: 10

когда проверят

Создавать темы 18-Дек-2013 17:12

[Профиль]  [ЛС] 

Djoni111095

Стаж: 4 года 9 месяцев

Сообщений: 57

Симпатии: 11

Phantomhive, сколько у тебя скорость отдачи?

Создавать темы 18-Дек-2013 17:20

[Профиль]  [ЛС] 

Phantomhive ®

Стаж: 4 года 2 месяца

Сообщений: 218

Симпатии: 10

незнаю у меня тариф life 2

Создавать темы 18-Дек-2013 17:21

[Профиль]  [ЛС] 
Показать сообщения:    
Ответить на тему

Текущее время: 18-Авг 08:12

Часовой пояс: UTC + 5



Вы не можете начинать темы
Вы не можете отвечать на сообщения
Вы не можете редактировать свои сообщения
Вы не можете удалять свои сообщения
Вы не можете голосовать в опросах
Вы не можете прикреплять файлы к сообщениям
Вы не можете скачивать файлы