10 террористов / 10Terrorists ( Дункан МакЛахлан) [2012; комедия;WEB-DLRip]

Ответить на тему
 

Каротажник ®

Стаж: 4 года 1 месяц

Сообщений: 195

Симпатии: 211

10 террористов


Год выпуска: 2012
Страна: Австралия-Жанр: комедия
Продолжительность:01:33:10-Перевод:Профессиональный многоголосный - НТВ+
Режиссёр: Дункан МакЛахлан
В ролях: Кендал Нагорка, Джаспер Бэйг, Элин Абелла, Ричард Коуторн, Сачин Джоаб, Джеки Даймонд, Osamah Sami, Мэтт Хетерингтон, Вероника Сивак, Ratidzo Mambo

На одном интернет ресурсе «Кто хочет стать террористом», проводит кастинг и набирает участников, для реалити шоу, где приз 1 миллион долларов, которое будет проходить в Австралии. Конечно для такого лакомого кусочка подают заявки люди из всего мира. В жестком отборе выбирается 10 участников, которые будут подвержены многим лишениям, пыткам и заключению, а победит только один. И вот начало игры...


Качество: WEB-DLRip
Формат: AVI

Видео кодек: XviD
Аудио кодек: AC3

Видео: 1898 kb/s, 720x400
Аудио: AC3, 192 kb/s (2 ch)

Media Info

Format : AVI
Format/Info : Audio Video Interleave
File size : 1.37 GiB
Duration : 1h 33mn
Overall bit rate : 2 100 Kbps
Writing application : VirtualDubMod 1.5.10.2 (build 2540/release)
Writing library : VirtualDubMod build 2540/release
Video #0
ID : 0
Format : MPEG-4 Visual
Format profile : Advanced [email protected]
Format settings, BVOP : 2
Format settings, QPel : No
Format settings, GMC : No warppoints
Format settings, Matrix : Default (MPEG)
Codec ID : XVID
Codec ID/Hint : XviD
Duration : 1h 33mn
Bit rate : 1 899 Kbps
Width : 720 pixels
Height : 400 pixels
Display aspect ratio : 16:9
Frame rate : 23.976 fps
Color space : YUV
Chroma subsampling : 4:2:0
Bit depth : 8 bits
Scan type : Progressive
Compression mode : Lossy
Bits/(Pixel*Frame) : 0.275
Stream size : 1.24 GiB (90%)
Writing library : XviD 1.2.1 (UTC 2008-12-04)
Audio #1
ID : 1
Format : AC-3
Format/Info : Audio Coding 3
Mode extension : CM (complete main)
Format settings, Endianness : Big
Codec ID : 2000
Duration : 1h 33mn
Bit rate mode : Constant
Bit rate : 192 Kbps
Channel(s) : 2 channels
Channel positions : Front: L R
Sampling rate : 48.0 KHz
Bit depth : 16 bits
Compression mode : Lossy
Stream size : 128 MiB (9%)
Alignment : Split accross interleaves
Interleave, duration : 42 ms (1.00 video frame)
Interleave, preload duration : 500 ms

Скриншоты


Создавать темы 19-Дек-2013 09:50

[Профиль]  [ЛС] 

Каротажник ®

Стаж: 4 года 1 месяц

Сообщений: 195

Симпатии: 211

раздача вечером

Создавать темы 19-Дек-2013 09:51

[Профиль]  [ЛС] 

razor2011

Стаж: 5 лет 2 месяца

Сообщений: 227

Симпатии: 37

10 идиота

Создавать темы 19-Дек-2013 14:41

[Профиль]  [ЛС] 

Каротажник ®

Стаж: 4 года 1 месяц

Сообщений: 195

Симпатии: 211

раздача пошла

Создавать темы 19-Дек-2013 17:45

[Профиль]  [ЛС] 
Показать сообщения:    
Ответить на тему

Текущее время: 21-Ноя 22:10

Часовой пояс: UTC + 5



Вы не можете начинать темы
Вы не можете отвечать на сообщения
Вы не можете редактировать свои сообщения
Вы не можете удалять свои сообщения
Вы не можете голосовать в опросах
Вы не можете прикреплять файлы к сообщениям
Вы не можете скачивать файлы