Хоббит: Пустошь Смауга / The Hobbit: The Desolation of Smaug (Питер Джексон) [2013 г., фэнтези, приключения, HDRip] [Лицензия / iTunes]

Тема закрыта
 

Suxrob89 ®

Стаж: 7 лет 4 месяца

Сообщений: 933

Симпатии: 564

- -Хоббит: Пустошь Смауга / The Hobbit: The Desolation of Smaug-«Beyond darkness... beyond desolation... lies the greatest danger of all»- Год выпуска: 2013
Страна: США, Новая Зеландия
Студия: New Line Cinema
Жанр: фэнтези, приключения
Продолжительность: 02:41:17
Перевод: Дублированный [Лицензия / iTunes]
Примечание: На Эльфийские, Оркские и т.д. диалоги вшиты русские субтитры!-Режиссер: Питер Джексон-В ролях: Мартин Фриман, Иэн МакКеллен, Ричард Армитидж, Джеймс Несбитт, Кен Стотт, Грэм МакТавиш, Уильям Кирчер, Стивен Хантер-Описание: После успешного перехода через Туманные горы, Торин и компания вынуждены обратиться за помощью к могучему незнакомцу, прежде чем отправиться в опасное Лихолесье без волшебника. Их компания обязана завершить свое путешествие к Одинокой горе, где Бэггинсу нужно будет найти потайную дверь, чтобы добраться до клада Смауга…- -Дата мировой премьеры: 2 декабря 2013
Дата российской премьеры: 18 декабря 2013, «Каро-Премьер»
Дата выхода DVD релиза: 17 апреля 2014, «CP Дистрибуция»
Бюджет: $225 000 000
Сборы в США: $257 903 709
Сборы в мире: $686 400 000 = $944 303 709
Сборы в России: $44 946 959-Качество: HDRip
Формат: MKV
Видео: XviD, 1 127 Кбит/с, 720x304
Аудио: AC3, 6 ch, 384 Кбит/с

Media info

E:\Hobbit.Pustosh.Smauga.2013.D.HDRip.1400MB.mkv
   General
      Unique ID : 223716721471724402703601246270907477107 (0xA84E45F69CB81207A394661CEED3EC73)
      Complete name : E:\Hobbit.Pustosh.Smauga.2013.D.HDRip.1400MB.mkv
      Format : Matroska
      Format version : Version 4 / Version 2
      File size : 1.74 GiB
      Duration : 2h 41mn
      Overall bit rate : 1 542 Kbps
      Encoded date : UTC 2014-03-24 19:54:08
      Writing application : mkvmerge v6.3.0 ('You can't stop me!') built on Jun 28 2013 20:09:41
      Writing library : libebml v1.3.0 + libmatroska v1.4.0
   Video #1
      ID : 1
      Format : MPEG-4 Visual
      Format profile : Advanced [email protected]
      Format settings, BVOP : Yes
      Format settings, QPel : No
      Format settings, GMC : No warppoints
      Format settings, Matrix : Custom
      Codec ID : V_MS/VFW/FOURCC / XVID
      Codec ID/Hint : XviD
      Duration : 2h 41mn
      Bit rate : 1 127 Kbps
      Width : 720 pixels
      Height : 304 pixels
      Display aspect ratio : 2.35:1
      Frame rate mode : Constant
      Frame rate : 23.976 fps
      Color space : YUV
      Chroma subsampling : 4:2:0
      Bit depth : 8 bits
      Scan type : Progressive
      Compression mode : Lossy
      Bits/(Pixel*Frame) : 0.215
      Stream size : 1.27 GiB (73%)
      Writing library : XviD 1.2.1 (UTC 2008-12-04)
      Default : Yes
      Forced : No
   Audio #2
      ID : 2
      Format : AC-3
      Format/Info : Audio Coding 3
      Mode extension : CM (complete main)
      Format settings, Endianness : Big
      Codec ID : A_AC3
      Duration : 2h 41mn
      Bit rate mode : Constant
      Bit rate : 384 Kbps
      Channel(s) : 6 channels
      Channel positions : Front: L C R, Side: L R, LFE
      Sampling rate : 48.0 KHz
      Bit depth : 16 bits
      Compression mode : Lossy
      Stream size : 443 MiB (25%)
      Default : Yes
      Forced : No

Скриншоты

-


Последний раз редактировалось: Suxrob89 (2014-03-26 17:38), всего редактировалось 6 раз(а)

Создавать темы 19-Дек-2013 15:56

[Профиль]  [ЛС] 

Scarpion0990

Стаж: 4 года 10 месяцев

Сообщений: 66

Симпатии: 11

фильм нормальный но я ожидал большего еще нужна ждать 3-часть чтоли?

Создавать темы 21-Дек-2013 21:40

[Профиль]  [ЛС] 

hard92

Стаж: 5 лет

Сообщений: 60

фильм нормальный но я ожидал большего еще нужна ждать 3-часть чтоли?
нет можно покончить с собой и ждать не придется

Создавать темы 21-Дек-2013 21:52

[Профиль]  [ЛС] 

cronaldo

Стаж: 6 лет 11 месяцев

Сообщений: 52

Симпатии: 2

а когда 3 часть?

Создавать темы 30-Дек-2013 20:26

[Профиль]  [ЛС] 

sem

Стаж: 7 лет 1 месяц

Сообщений: 123

Симпатии: 6

вооо качаем))

Создавать темы 22-Мар-2014 09:10

[Профиль]  [ЛС] 

akademik90

Стаж: 5 лет 11 месяцев

Сообщений: 45

Симпатии: 3

cronaldo, в декабре)

Создавать темы 22-Мар-2014 11:53

[Профиль]  [ЛС] 

faceman

Стаж: 5 лет 10 месяцев

Сообщений: 27

Симпатии: 1

Не оркские, а орочьи

Создавать темы 22-Мар-2014 18:56

[Профиль]  [ЛС] 

Jnec

Стаж: 5 лет 1 месяц

Сообщений: 165

Спасибо за релиз!!!

Создавать темы 22-Мар-2014 19:02

[Профиль]  [ЛС] 

zerowow-4144

Стаж: 5 лет 6 месяцев

Сообщений: 10

bolla ka4erstvasi qanay KINO ni ta

Создавать темы 22-Мар-2014 19:45

[Профиль]  [ЛС] 

Иви

Стаж: 5 лет 11 месяцев

Сообщений: 688

Симпатии: 65

Хоббит: Пустошь Смауга / The Hobbit: The Desolation of Smaug (Питер Джексон) [2013 г., фэнтези, приключения, HDRip] [Лицензия / iTunes]

Создавать темы 24-Мар-2014 22:57

[Профиль]  [ЛС] 
Показать сообщения:    
Тема закрыта

Текущее время: 11-Дек 14:31

Часовой пояс: UTC + 5



Вы не можете начинать темы
Вы не можете отвечать на сообщения
Вы не можете редактировать свои сообщения
Вы не можете удалять свои сообщения
Вы не можете голосовать в опросах
Вы не можете прикреплять файлы к сообщениям
Вы не можете скачивать файлы