Ниндзя 2 / Ninja: Shadow of a Tear (Айзек Флорентайн / Isaac Florentine) [2013, Таиланд, США, боевик, триллер, криминал, WEB-DLRip] DVO [Студия "Paradox"]

Ответить на тему
 

Suxrob89 ®

Стаж: 7 лет 1 месяц

Сообщений: 933

Симпатии: 564

-Ниндзя 2 / Ninja: Shadow of a Tear- Страна: Таиланд, США / Swingin' Productions LLC
Жанр: боевик, триллер, криминал
Год выпуска: 2013
Продолжительность: 01:34:41
Перевод: Любительский (двухголосый закадровый) [Студия "Paradox"]
Cубтитры: нет
Оригинальная аудиодорожка: нет-Режиссер: Айзек Флорентайн / Isaac Florentine-В ролях: Скотт Эдкинс, Витхая Пансрингарм, Кейн Косуги, Тим Ман, Чарли Рюдпоканон, Рон Смуренбург, Мика Хиджии, Сюн Сугата, Эрика Нагаминэ, Патрик Тэнг-Описание: Кейси Боумен, наконец, начал оседлую жизнь. Он в счастливом браке с Намико (которая беременна первенцем), живёт в Японии и преподаёт в додзё Кога. Однажды на Кейси, отправившегося за подарком для жены, нападает пара отморозков. Он не придаёт этому значения, считая всё обычным грабежом. Но когда той же ночью жестоко убивают Намико, мир Кейси рушится на части. Поражённый горем и пылающий жаждой мести, Кейси выслеживает двух бандитов, пытавшихся его ограбить, но те не могут предоставить ему ключи к разгадке убийства его жены. Поэтому Кейси отправляется в Таиланд, в додзё близкого друга. Горе и гнев берут над ним верх, и он «срывается» во время спарринга с учениками. Когда одного из учеников убивают так же, как и Намико, Кейси, наконец, находит улики, которые ему нужны для того, чтобы выследить убийцу своей жены и разгадать тайну, хранящуюся в глубине бирманских джунглей.- -Качество видео: WEB-DLRip
Формат видео: AVI
Видео: 720x400 (1.80:1), 23.976 fps, XviD build 50 ~1864 kbps avg, 0.27 bit/pixel
Аудио: 48 kHz, AC3 Dolby Digital, 2/0 (L,R) ch, ~192 kbps

MediaInfo

Общее
Полное имя : D:\Ninja.2.2013.L2.WEB-DLRip.avi
Формат : AVI
Формат/Информация : Audio Video Interleave
Размер файла : 1,37 Гбайт
Продолжительность : 1 ч. 34 м.
Общий поток : 2066 Кбит/сек
Программа кодирования : VirtualDubMod 1.5.10.2 (build 2542/release)
Библиотека кодирования : VirtualDubMod build 2542/release
Видео
Идентификатор : 0
Формат : MPEG-4 Visual
Профиль формата : Advanced [email protected]
Параметр BVOP формата : 1
Параметр QPel формата : Нет
Параметр GMC формата : Без точки перехода
Параметр матрицы формата : Default (H.263)
Идентификатор кодека : XVID
Идентификатор кодека/Подсказка : XviD
Продолжительность : 1 ч. 34 м.
Битрейт : 1783 Кбит/сек
Ширина : 720 пикселей
Высота : 400 пикселей
Соотношение сторон : 16:9
Частота кадров : 23,976 кадра/сек
Цветовое пространство : YUV
Субдискретизация насыщенности : 4:2:0
Битовая глубина : 8 бит
Тип развёртки : Прогрессивная
Метод сжатия : С потерями
Бит/(Пиксели*Кадры) : 0.258
Размер потока : 1,18 Гбайт (86%)
Библиотека кодирования : XviD 1.2.1 (UTC 2008-12-04)
Аудио
Идентификатор : 1
Формат : AC-3
Формат/Информация : Audio Coding 3
Расширение режима : CM (complete main)
Параметр Endianness формата : Big
Идентификатор кодека : 2000
Продолжительность : 1 ч. 34 м.
Вид битрейта : Постоянный
Битрейт : 192 Кбит/сек
Каналы : 2 канала
Расположение каналов : Front: L R
Частота : 48,0 КГц
Битовая глубина : 16 бит
Метод сжатия : С потерями
Размер потока : 130 Мбайт (9%)
Выравнивание : Разделение по промежуткам

Скриншот c названием фильма

Скриншоты

Создавать темы 20-Дек-2013 21:56

[Профиль]  [ЛС] 

sem

Стаж: 6 лет 11 месяцев

Сообщений: 123

Симпатии: 6

о_О Скотт Эдкинс стоит посмотреть!!! а когда Лицуха?

Создавать темы 21-Дек-2013 08:56

[Профиль]  [ЛС] 

davijonbekkkk

Стаж: 5 лет

Сообщений: 4

Симпатии: 1

Thenk you Suxrob89 ®

Создавать темы 21-Дек-2013 09:24

[Профиль]  [ЛС] 

jasur881

Стаж: 4 года 3 месяца

Сообщений: 7

не очень хорошо

Создавать темы 21-Дек-2013 10:22

[Профиль]  [ЛС] 

Asilbek007

Стаж: 4 года 8 месяцев

Сообщений: 25

Suxrob89, spasibo drug

Создавать темы 21-Дек-2013 12:19

[Профиль]  [ЛС] 

ILHOMXXX

Стаж: 7 лет 2 месяца

Сообщений: 24

Симпатии: 3

отличный фильм...........

Создавать темы 22-Дек-2013 11:31

[Профиль]  [ЛС] 

yoliki

Стаж: 5 лет 6 месяцев

Сообщений: 6

Симпатии: 1

Автору спасибо! =) давно хотел его посмотреть =)

Создавать темы 22-Дек-2013 20:48

[Профиль]  [ЛС] 

Jnec

Стаж: 4 года 11 месяцев

Сообщений: 165

Спасибо

Создавать темы 24-Дек-2013 01:43

[Профиль]  [ЛС] 

Daganet

Стаж: 6 лет 4 месяца

Сообщений: 14

Симпатии: 1

когда лицензия будет ???

Создавать темы 24-Дек-2013 11:17

[Профиль]  [ЛС] 

sherzod1414

Стаж: 3 года 11 месяцев

Сообщений: 107

Симпатии: 40

респект ваще круто

Создавать темы 24-Дек-2013 22:41

[Профиль]  [ЛС] 

Shuxratt

Стаж: 6 лет 7 месяцев

Сообщений: 76

Симпатии: 2

скотт эдкинс супер

Создавать темы 27-Дек-2013 19:15

[Профиль]  [ЛС] 

jas81

Стаж: 3 года 10 месяцев

Сообщений: 108

Симпатии: 7

фильм хороший, лично я не зналь что этот учитель.....)

Создавать темы 04-Янв-2014 22:37

[Профиль]  [ЛС] 

Infom

Стаж: 5 лет

Сообщений: 25

Эй люди ни кто не подскажет где первая часть? Кто видел?

Создавать темы 06-Янв-2014 15:58

[Профиль]  [ЛС] 

olim5631

Стаж: 4 года 7 месяцев

Сообщений: 120

Симпатии: 1

Infom, тот же вопрос!

Создавать темы 09-Янв-2014 15:17

[Профиль]  [ЛС] 
Показать сообщения:    
Ответить на тему

Текущее время: 22-Сен 04:07

Часовой пояс: UTC + 5



Вы не можете начинать темы
Вы не можете отвечать на сообщения
Вы не можете редактировать свои сообщения
Вы не можете удалять свои сообщения
Вы не можете голосовать в опросах
Вы не можете прикреплять файлы к сообщениям
Вы не можете скачивать файлы