"Авария" - дочь мента (Михаил Туманишвили) [1989 г., драма, DVDRip]

Ответить на тему
 

kat222000 ®

Стаж: 6 лет 5 месяцев

Сообщений: 608

Симпатии: 1055

"Авария" - дочь мента- -Год выпуска: 1989
Жанр: драма
Продолжительность: 01:33:18-Режиссер: Михаил Туманишвили-В ролях: Оксана Арбузова, Владимир Ильин, Анастасия Вознесенская, Николай Пастухов, Борис Романов, Олег Царёв, Игорь Нефёдов, Сергей Воробьев, Юрий Шумило, Любовь Соколова, Александр Потапов, Алиса Признякова, Ирина Афонина, Владимир Басов младший, Николай Бармин, Валентина Березуцкая, Игорь Букатко, Вера Бурлакова, Мария Виноградова, Федор Гаврилов, Ян Пузыревский, Олег Савосин, Борис Юрченко...-Описание: Остросюжетная версия традиционного конфликта поколений. Дочь — трудный подросток, «металлистка», отец — милиционер, «мент». У каждого из героев свои ценности, свой отдельный мир… Но когда приходит настоящая беда, они понимают, как много значат друг для друга. Спасая дочь, верный страж закона сам вершит правосудие…- -Качество: DVDRip
Формат: MKV
Видео кодек: H264
Аудио кодек: ААС
Видео: H264, 720x512, 25fps, 1 842 Kbps
Аудио: ААС, 48000Hz, stereo, 256 Kbps-Доп. информация: В фильме принимает участие панк-рок-группа "Чудо-юдо". Использованы картины художника Валерия Лукки.-

Знаете ли вы, что...

* Первоначально главная роль в фильме была предложена Наталье Гусевой, главной героине фильма «Гостья из будущего», но, прочитав сценарий, она отказалась от роли, мотивировав это тем, что не хочет марать сценой изнасилования чистый и светлый образ Алисы Селезнёвой, сыгранный ею ранее.
* Оксана Арбузова — исполнительница роли Аварии, «неформалки» и «оторвы», в настоящее время замужем за Иваном Охлобыстиным и растит шестерых детей
* Сценарий Юрия Короткова, напечатанный в журнале «Парус» годом ранее, достаточно сильно отличается от фильма. В частности, отец Аварии по первоначальному замыслу погибал, а в сцене, где Авария смотрит музыкальный клип по ТВ, фигурирует популярная отечественная «Ария», а не зарубежные исполнители Стив Томсон и «Sigue Sigue Sputnik».
Крылатые фразы
* Мне нравится то, что не нравится вам.
* Каждый готов раздеть, а одевать никто не хочет.
* На [площади] Восстания дипломат "чайника" боднул.
* Знаете, я в милиции работаю - нормальных не вижу.
-

MediaInfo

General
Complete name : E:\Фильмы\Видео\Avarija.doch.menta.1989.x264.DVDRip-genafon.mp4
Format : MPEG-4
Format profile : Base Media
Codec ID : isom
File size : 1.37 GiB
Duration : 1h 33mn
Overall bit rate mode : Variable
Overall bit rate : 2 102 Kbps
Encoded date : UTC 2009-07-09 12:15:40
Tagged date : UTC 2009-07-09 12:15:40
Writing application : Yamb 2.1.0.0 [http://yamb.unite-video.com]
Copyright : genafon
Video
ID : 1
Format : AVC
Format/Info : Advanced Video Codec
Format profile : [email protected]
Format settings, CABAC : Yes
Format settings, ReFrames : 4 frames
Codec ID : avc1
Codec ID/Info : Advanced Video Coding
Duration : 1h 33mn
Bit rate : 1 842 Kbps
Maximum bit rate : 4 283 Kbps
Width : 720 pixels
Height : 512 pixels
Display aspect ratio : 1.406
Frame rate mode : Constant
Frame rate : 25.000 fps
Color space : YUV
Chroma subsampling : 4:2:0
Bit depth : 8 bits
Scan type : Progressive
Bits/(Pixel*Frame) : 0.200
Stream size : 1.20 GiB (88%)
Writing library : x264 core 68 r1179M 96e2229
Encoding settings : cabac=1 / ref=4 / deblock=1:0:0 / analyse=0x3:0x113 / me=hex / subme=7 / psy_rd=1.0:0.0 / mixed_ref=1 / me_range=16 / chroma_me=1 / trellis=2 / 8x8dct=1 / cqm=0 / deadzone=21,11 / chroma_qp_offset=-2 / threads=3 / nr=0 / decimate=1 / mbaff=0 / bframes=3 / b_pyramid=0 / b_adapt=1 / b_bias=0 / direct=1 / wpredb=1 / keyint=250 / keyint_min=25 / scenecut=40 / rc=2pass / bitrate=1842 / ratetol=1.0 / qcomp=0.60 / qpmin=10 / qpmax=51 / qpstep=4 / cplxblur=20.0 / qblur=0.5 / vbv_maxrate=50000 / vbv_bufsize=50000 / ip_ratio=1.40 / pb_ratio=1.30 / aq=1:1.00
Encoded date : UTC 2009-07-08 13:38:27
Tagged date : UTC 2009-07-09 12:17:42
Audio
ID : 2
Format : AAC
Format/Info : Advanced Audio Codec
Format profile : LC
Codec ID : 40
Duration : 1h 33mn
Bit rate mode : Variable
Bit rate : 256 Kbps
Maximum bit rate : 262 Kbps
Channel(s) : 2 channels
Channel positions : Front: L R
Sampling rate : 48.0 KHz
Compression mode : Lossy
Stream size : 171 MiB (12%)
Language : Russian
Encoded date : UTC 2009-07-09 12:17:33
Tagged date : UTC 2009-07-09 12:17:42
-

Скриншоты



Последний раз редактировалось: kat222000 (2013-12-26 08:18), всего редактировалось 1 раз

Создавать темы 21-Дек-2013 19:19

[Профиль]  [ЛС] 
Показать сообщения:    
Ответить на тему

Текущее время: 24-Сен 09:59

Часовой пояс: UTC + 5



Вы не можете начинать темы
Вы не можете отвечать на сообщения
Вы не можете редактировать свои сообщения
Вы не можете удалять свои сообщения
Вы не можете голосовать в опросах
Вы не можете прикреплять файлы к сообщениям
Вы не можете скачивать файлы