Затойчи / Zatoichi (Такеши Китано) [2003 г., Самурайский Экшн HDTVRip,]

Ответить на тему
 

maxuz ®

Стаж: 6 лет 10 месяцев

Сообщений: 55

Симпатии: 3

Затойчи / Zatoichi-- --Год выпуска: 2003--Страна: Япония--Жанр: Самурайский Экшн--Продолжительность: 01.55.48--Перевод: Профессиональный (полное дублирование)--Режиссер: Такеши Китано--В ролях: Такеши Китано, Таданобу Асано, Юко Дайке, Акира Эмото, Така Гатаруканару, Сабуро Ишикура, Иттоку Кисибе, Юи Натсукава, Мичиё Огусу, Дайгоро Тачибана--Описание: Япония, XIX век. Затоiчи - слепой странник, который зарабатывает на жизнь игрой в кости и массажем. Но за этим скромным фасадом скрывается боец, искусно владеющий мечом, обладающий молниеносной реакцией и наносящий удары с потрясающей точностью.
Затоiчи приходит в расположенный высоко в горах городок, находящийся во власти шайки Гиндзо. Безжалостный Гиндзо уничтожает всех, кто становится у него на пути, а с тех пор, как в шайку вступил могучий самурай-ронин Хаттори, - делает это молниеносно.
В игорном заведении Затоiчи и его верный юный друг Синкити знакомятся с двумя гейшами. Столь же опасные, сколь и красивые, Окину и её сестра Осей пришли в город, чтобы отомстить за убийство своих родителей. Сестрам-гейшам известно лишь таинственное имя Кутинава, но у них в запасе есть масса хитроумных уловок.В скором времени зловещие приспешники Гиндзо начинают охотиться за Затоiчи. Затоiчи и его легендарному мечу предстоят многочисленные схватки не на жизнь, а на смерть...--Качество: HDTVRip-Формат:mkv-Видео кодек: H.26x-Аудио кодек: AC3-Видео: 1280x692 at 23.976 fps, ~4570 Kbps avg-Аудио1: Russian: 48 kHz, AC3, 3/2 (L,C,R,l,r) + LFE ch, ~448.00 kbps avg |Дубляж|-Аудио2: Jpn AC3 5.1 192k-Cубтитры:Английские, Русские-

МИ

C:\Users\007\Downloads\Затойчи\Zatoichi.2003.720p.HDTVRip.Rus.Jpn.mkv
General
Unique ID : 221027247194663090087549634970955441462 (0xA6484CA4CECEE1F187FA422BBE2A6536)
Complete name : C:\Users\007\Downloads\Затойчи\Zatoichi.2003.720p.HDTVRip.Rus.Jpn.mkv
Format : Matroska
Format version : Version 1
File size : 4.27 GiB
Duration : 1h 55mn
Overall bit rate : 5 279 Kbps
Encoded date : UTC 2008-03-12 16:32:31
Writing application : mkvmerge v2.1.0 ('Another Place To Fall') built on Aug 19 2007 13:40:07
Writing library : libebml v0.7.7 + libmatroska v0.8.1
Attachment : Yes / Yes / Yes / Yes / Yes / Yes / Yes
Video #1
ID : 1
Format : AVC
Format/Info : Advanced Video Codec
Format profile : [email protected]
Format settings, CABAC : Yes
Format settings, ReFrames : 5 frames
Codec ID : V_MPEG4/ISO/AVC
Duration : 1h 55mn
Bit rate : 4 636 Kbps
Width : 1 280 pixels
Height : 692 pixels
Display aspect ratio : 1.850
Frame rate : 23.976 fps
Color space : YUV
Chroma subsampling : 4:2:0
Bit depth : 8 bits
Scan type : Progressive
Bits/(Pixel*Frame) : 0.218
Stream size : 3.67 GiB (86%)
Title : Release for HDClub
Writing library : x264 core 58 svn-736M
Encoding settings : cabac=1 / ref=5 / deblock=1:-3:-3 / analyse=0x3:0x133 / me=umh / subme=6 / me-prepass=0 / brdo=1 / mixed_ref=1 / me_range=16 / chroma_me=1 / trellis=0 / 8x8dct=1 / cqm=2 / deadzone=9,9 / chroma_qp_offset=0 / threads=3 / nr=0 / decimate=1 / mbaff=0 / bframes=3 / b_pyramid=1 / b_adapt=1 / b_bias=0 / direct=1 / wpredb=1 / bime=1 / keyint=250 / keyint_min=25 / scenecut=40(pre) / rc=2pass / bitrate=4636 / ratetol=1.0 / rceq='blurCplx^(1-qComp)' / qcomp=1.00 / qpmin=10 / qpmax=51 / qpstep=4 / cplxblur=20.0 / qblur=0.5 / ip_ratio=1.40 / pb_ratio=1.30 / aq=1:0.5:15.0
Language : Japanese
Default : Yes
Forced : No
Audio #2
ID : 2
Format : AC-3
Format/Info : Audio Coding 3
Mode extension : CM (complete main)
Codec ID : A_AC3
Duration : 1h 55mn
Bit rate mode : Constant
Bit rate : 448 Kbps
Channel(s) : 6 channels
Channel positions : Front: L C R, Side: L R, LFE
Sampling rate : 48.0 KHz
Bit depth : 16 bits
Compression mode : Lossy
Stream size : 371 MiB (8%)
Title : AC3 5.1 448k (Dubl)
Language : Russian
Default : Yes
Forced : No
Audio #3
ID : 3
Format : AC-3
Format/Info : Audio Coding 3
Mode extension : CM (complete main)
Codec ID : A_AC3
Duration : 1h 55mn
Bit rate mode : Constant
Bit rate : 192 Kbps
Channel(s) : 6 channels
Channel positions : Front: L C R, Side: L R, LFE
Sampling rate : 48.0 KHz
Bit depth : 16 bits
Compression mode : Lossy
Stream size : 159 MiB (4%)
Title : AC3 5.1 192k
Language : Japanese
Default : No
Forced : No
Text #4
ID : 4
Format : UTF-8
Codec ID : S_TEXT/UTF8
Codec ID/Info : UTF-8 Plain Text
Language : Russian
Default : Yes
Forced : No
Text #5
ID : 5
Format : ASS
Codec ID : S_TEXT/ASS
Codec ID/Info : Advanced Sub Station Alpha
Compression mode : Lossless
Language : English
Default : No
Forced : No

Скриншоты





Последний раз редактировалось: maxuz (2013-12-23 08:43), всего редактировалось 6 раз(а)

Создавать темы 21-Дек-2013 23:30

[Профиль]  [ЛС] 

abut

Стаж: 4 года

Сообщений: 27

Симпатии: 7

Спасибо. Будем качать - очень давно ждал...

Создавать темы 22-Дек-2013 00:36

[Профиль]  [ЛС] 

victor0778

Стаж: 6 лет 10 месяцев

Сообщений: 1670

Симпатии: 142

maxuz,
уберите с папки всё лишнее (постер и скриншоты)
Качество поправьте
Формат поправьте
Укажите вторую аудио дорожку
Укажите субтитры


Последний раз редактировалось: victor0778 (2013-12-22 10:24), всего редактировалось 2 раз(а)

Создавать темы 22-Дек-2013 10:21

[Профиль]  [ЛС] 

mongoloid9

Стаж: 5 лет 6 месяцев

Сообщений: 172

Симпатии: 12

abut, теперь бы сидера дождаться.. а то ни бита не роздано..

Создавать темы 22-Дек-2013 10:21

[Профиль]  [ЛС] 

maxuz ®

Стаж: 6 лет 10 месяцев

Сообщений: 55

Симпатии: 3

надеюс этот раз все по правилу торрент файл обновлень

Создавать темы 22-Дек-2013 23:12

[Профиль]  [ЛС] 

maxuz ®

Стаж: 6 лет 10 месяцев

Сообщений: 55

Симпатии: 3

ребят раздача каждый день с 7,00 вечером до 8,00 утро

Создавать темы 24-Дек-2013 20:44

[Профиль]  [ЛС] 

neo xxx

Стаж: 4 года 4 месяца

Сообщений: 5

Дайте скорости ваще нереально НЕ КАЧАЕТ пажалуйста посмотреть хочется

Создавать темы 13-Янв-2014 20:58

[Профиль]  [ЛС] 
Показать сообщения:    
Ответить на тему

Текущее время: 15-Дек 15:25

Часовой пояс: UTC + 5



Вы не можете начинать темы
Вы не можете отвечать на сообщения
Вы не можете редактировать свои сообщения
Вы не можете удалять свои сообщения
Вы не можете голосовать в опросах
Вы не можете прикреплять файлы к сообщениям
Вы не можете скачивать файлы