Развилка Фортуны: Обещание, связавшее нас / Fortune Arterial: Akai Yakusoku (Нава Мунэнори) [TV] [12 из 12] [без хардсаба] [RUS(int), JAP+SUB] [2010 г., романтика, мистика, школа, BDRip] [720p] [HD]

Страницы :  1, 2  След.

Ответить на тему
 

Phantomhive ®

Стаж: 4 года 4 месяца

Сообщений: 218

Симпатии: 10

Год выпуска: 2010
Страна: Япония
Жанр: Романтика, мистика, школа, этти
Продолжительность: 12 эп. по 25 мин.-Перевод:
русские субтитры от Advantage (ass/srt)
редактор: DeK, Nati, переводчик/оформление: Nachtwandler-Режиссер: Нава Мунэнори
Студия: -Описание: Кохэй Хасэкура – типичная «перелетная птица». Из-за работы родителей он сменил более 20 школ, научился быть легким на подъем и не привязываться к людям. Но к 17 годам парень устал от кочевой жизни и, когда родители уехали за рубеж, поступил в Сютикан, престижную академию-пансион на острове Тамацу, надеясь спокойно провести там остаток школьных лет. Однако фортуна распорядилась иначе, и с первых же дней в академии Кохэй оказался в гуще событий, попав по дороге в женскую баню, смешанное общежитие и до кучи в члены Школьного Совета!
Удивляться нечему - на то и два года весны юности в тропическом раю вдали от родителей, чтобы жить на полную катушку! Тем более что, как и положено, судьба тесно свела Хасэкуру с хрестоматийной группой красавиц – энергичным школьным идолом, нелюдимым математическим гением, двумя сестрами – подругами детства, и даже лоли с белым кроликом. Теперь парню круглые сутки придется бороться за свое счастье и решать проблемы новых знакомых, каждая из которых имеет, разумеется, мр-рачную тайну, а кое-кто и вообще вампир! Ну а как в приличной академии без вампиров? Несолидно получается…
© Hollow, World Art
-Информационные ссылки:World Art||AniDB||MAL-Качество: BDRip - на основе рипа ANE
Тип видео: без хардсаба
Формат: mkv
Видео: x264 (8bit), 1280x720, ~3000 Kbps, 23.976 fps
Аудио JAP: AC3, 48000Hz, ~640 Kbps, 2ch
Аудио RUS 1: AC3, 48000Hz, 640 Kbps, 2ch (Persona99)
Аудио RUS 2: AAC/AC3, 48000Hz, 192 Kbps, 2ch (Jeferson)
Аудио RUS 3: AAC, 48000Hz, 192 Kbps, 2ch (NIKITOS & Venera)-

Список эпизодов

01. Migratory Bird
02. Opening Ceremony
03. The One Thousand-Year Spring
04. New Member
05. Key
06. Letter
07. Omen
08. Memory
09. Family
10. Thirst
11. Parting
12. Red Promise

Подробные тех. данные

General
Unique ID : 210929463849876962198460731005120363398 (0x9EAF897CA576EEC3835DD51E99CD3B86)
Complete name : D:\Fortune Arterial Akai Yakusoku [BD-HDHWP]\Fortune Arterial Akai Yakusoku 01 BD x264-8.mkv
Format : Matroska
Format version : Version 2
File size : 744 MiB
Duration : 24mn 22s
Overall bit rate : 4 270 Kbps
Encoded date : UTC 2013-03-05 04:47:11
Writing application : mkvmerge v2.9.8 ('C'est le bon') built on Aug 13 2009 12:49:06
Writing library : libebml v0.7.7 + libmatroska v0.8.1
Attachment : Yes / Yes / Yes / Yes / Yes / Yes / Yes / Yes / Yes / Yes / Yes
Video
ID : 1
Format : AVC
Format/Info : Advanced Video Codec
Format profile : [email protected]
Format settings, CABAC : Yes
Format settings, ReFrames : 8 frames
Codec ID : V_MPEG4/ISO/AVC
Duration : 24mn 22s
Width : 1 280 pixels
Height : 720 pixels
Display aspect ratio : 16:9
Frame rate : 23.976 fps
Color space : YUV
Chroma subsampling : 4:2:0
Bit depth : 8 bits
Scan type : Progressive
Writing library : x264 core 112 r1834 a51816a
Encoding settings : cabac=1 / ref=8 / deblock=1:0:0 / analyse=0x3:0x133 / me=umh / subme=9 / psy=1 / psy_rd=0.70:0.00 / mixed_ref=1 / me_range=32 / chroma_me=1 / trellis=2 / 8x8dct=1 / cqm=0 / deadzone=21,11 / fast_pskip=0 / chroma_qp_offset=-2 / threads=12 / sliced_threads=0 / nr=0 / decimate=0 / interlaced=0 / constrained_intra=0 / bframes=11 / b_pyramid=2 / b_adapt=2 / b_bias=0 / direct=1 / weightb=1 / open_gop=0 / weightp=2 / keyint=250 / keyint_min=23 / scenecut=40 / intra_refresh=0 / rc=crf / mbtree=0 / crf=14.8 / qcomp=0.70 / qpmin=9 / qpmax=26 / qpstep=4 / ip_ratio=1.40 / pb_ratio=1.30 / aq=2:1.00
Language : English
Default : No
Forced : No
Audio #1
ID : 2
Format : AC-3
Format/Info : Audio Coding 3
Mode extension : CM (complete main)
Codec ID : A_AC3
Duration : 24mn 22s
Bit rate mode : Constant
Bit rate : 640 Kbps
Channel(s) : 2 channels
Channel positions : Front: L R
Sampling rate : 48.0 KHz
Bit depth : 16 bits
Compression mode : Lossy
Stream size : 112 MiB (15%)
Language : Japanese
Default : No
Forced : No
Audio #2
ID : 3
Format : AAC
Format/Info : Advanced Audio Codec
Format profile : LC
Codec ID : A_AAC
Duration : 24mn 22s
Channel(s) : 2 channels
Channel positions : Front: L R
Sampling rate : 48.0 KHz
Compression mode : Lossy
Title : [JeFerSon]
Language : Russian
Default : Yes
Forced : No
Audio #3
ID : 4
Format : AAC
Format/Info : Advanced Audio Codec
Format profile : LC
Codec ID : A_AAC
Duration : 24mn 22s
Channel(s) : 2 channels
Channel positions : Front: L R
Sampling rate : 48.0 KHz
Compression mode : Lossy
Title : [NIKITOS & Venera]
Language : Russian
Default : No
Forced : No
Audio #4
ID : 5
Format : MPEG Audio
Format version : Version 1
Format profile : Layer 3
Codec ID : A_MPEG/L3
Codec ID/Hint : MP3
Duration : 24mn 22s
Bit rate mode : Constant
Bit rate : 160 Kbps
Channel(s) : 2 channels
Sampling rate : 48.0 KHz
Compression mode : Lossy
Stream size : 27.9 MiB (4%)
Title : [Persona99]
Language : Russian
Default : No
Forced : No

Скриншоты



Последний раз редактировалось: Phantomhive (2013-12-22 11:49), всего редактировалось 1 раз

Создавать темы 22-Дек-2013 09:14

[Профиль]  [ЛС] 

Lyoman

Стаж: 5 лет 9 месяцев

Сообщений: 77

Симпатии: 3

так ты его раздаёшь или нет скорость бешеная 0.8-0.9 кб/s

Создавать темы 11-Янв-2014 11:55

[Профиль]  [ЛС] 

Азиз87

Стаж: 4 года 11 месяцев

Сообщений: 752

Симпатии: 143

На раздаче у него 9*+31* релизов кто забирает всю скорость ХЗ, да и при таком раскладе трудно сказать скачает ли он что нибудь.

Создавать темы 11-Янв-2014 12:37

[Профиль]  [ЛС] 

Lyoman

Стаж: 5 лет 9 месяцев

Сообщений: 77

Симпатии: 3

походу это надолго(

Создавать темы 11-Янв-2014 22:58

[Профиль]  [ЛС] 

Phantomhive ®

Стаж: 4 года 4 месяца

Сообщений: 218

Симпатии: 10

как увиличит скрост оддачи я незнаю если можите помоч не буду отказат или ест какие нибут проги дилитес с инфо!!!

Создавать темы 12-Янв-2014 13:43

[Профиль]  [ЛС] 

Rambotnik

Стаж: 6 лет 5 месяцев

Сообщений: 1274

Симпатии: 81

Количество одновременных раздач нужно брать, исходя из способности исходящей скорости, какбэ.

Создавать темы 12-Янв-2014 13:58

[Профиль]  [ЛС] 

Phantomhive ®

Стаж: 4 года 4 месяца

Сообщений: 218

Симпатии: 10

я чота не понял вас можно обиснит по другому

Создавать темы 12-Янв-2014 14:20

[Профиль]  [ЛС] 

[email protected]

Стаж: 4 года 3 месяца

Сообщений: 336

Симпатии: 143

поставь хотя бы половину раздач на паузу и свои раздачи (в частности эту) сделай в высоком приоритете

Создавать темы 12-Янв-2014 14:39

[Профиль]  [ЛС] 

Phantomhive ®

Стаж: 4 года 4 месяца

Сообщений: 218

Симпатии: 10

вот типер понял

Создавать темы 12-Янв-2014 15:15

[Профиль]  [ЛС] 

Phantomhive ®

Стаж: 4 года 4 месяца

Сообщений: 218

Симпатии: 10

Пошла Раздача!!!

Создавать темы 12-Янв-2014 15:18

[Профиль]  [ЛС] 

Lyoman

Стаж: 5 лет 9 месяцев

Сообщений: 77

Симпатии: 3

я застрял на 74.3% и в перёд ни как ни идёт(

Создавать темы 12-Янв-2014 17:17

[Профиль]  [ЛС] 

Lyoman

Стаж: 5 лет 9 месяцев

Сообщений: 77

Симпатии: 3

уже наверно неделю так(

Создавать темы 12-Янв-2014 17:17

[Профиль]  [ЛС] 

Lyoman

Стаж: 5 лет 9 месяцев

Сообщений: 77

Симпатии: 3

а начал качать 3 недели назад, такого кача у меня ещё не было)

Создавать темы 12-Янв-2014 17:18

[Профиль]  [ЛС] 

Alex_38

Стаж: 5 лет 7 месяцев

Сообщений: 336

Симпатии: 37

Lyoman, люди порой месяцами скачать не могут, а вы про какие то 3 недели говорите)

Создавать темы 12-Янв-2014 17:30

[Профиль]  [ЛС] 

LikeSmile

Стаж: 4 года 5 месяцев

Сообщений: 298

Симпатии: 48

Жаль, что файлы не совпадают .-. так бы помог

Создавать темы 12-Янв-2014 17:32

[Профиль]  [ЛС] 
Показать сообщения:    
Ответить на тему

Текущее время: 22-Окт 18:55

Часовой пояс: UTC + 5



Вы не можете начинать темы
Вы не можете отвечать на сообщения
Вы не можете редактировать свои сообщения
Вы не можете удалять свои сообщения
Вы не можете голосовать в опросах
Вы не можете прикреплять файлы к сообщениям
Вы не можете скачивать файлы