Пушки, телки и азарт / Guns, Girls and Gambling ( Майкл Уинник) [2012; триллер, криминал, комедия; BDRip]Лицензия

Ответить на тему
 

Каротажник ®

Стаж: 3 года 11 месяцев

Сообщений: 195

Симпатии: 211

Пушки, телки и азарт /Guns, Girls and Gambling

Год выпуска: 2012
Жанр: триллер, криминал, комедия
Продолжительность: 01:29:26

Перевод: Профессиональный многоголосный дубляж - Лицензия
Режиссёр: Майкл Уинник


Кристиан Слэйтер, Меган Парк, Хелена Мэттссон, Пауэрс Бут, Гордон Тутусис, Гари Олдман, Мэттью Уиллиг, Дейн Кук, Сэм Трэммелл, Джефф Фэйи

Джону Смиту не очень-то везло в последнее время, но он верил в народную мудрость, что жизнь — это тельняшка, и за черной полосой обязательно последует белая. Однако на этот раз мудрость не сработала. Джон Смит оказался в плохое время в плохом месте. Из казино, где он пытался поправить свое финансовое положение, во время игры в покер украли бесценный индейский артефакт. Как гласит предание, эта священная маска легендарного воина племени сиу способна подарить своему обладателю удачу и бессмертие. Охотников за счастьем подсобралось немало, и все они стопроцентно уверены, что вор — Джон Смит. Разношерстная компания — двойники Элвиса Пресли, индейцы, ковбои, блондинка-киллерша, коррумпированные полицейские, проститутка и даже злобный карлик — бросается за ним в погоню…
Дополнительное описание: КиноПоиск - рейтинг: 5.731 (958)

Качество: BDRip (Лицензия)
Формат: AVI

Видео кодек: XviD
Аудио кодек: AС-3

Видео: 704x400 (1.76:1), 23.976 fps, XviD build 65 ~1935 kbps avg, 0.29 bit/pixel
Аудио: 48 kHz, AC3 Dolby Digital, 3/2 (L,C,R,l,r) + LFE ch, ~384 kbps avg (RUS)

Media Info

Format : AVI
Format/Info : Audio Video Interleave
File size : 1.45 GiB
Duration : 1h 29mn
Overall bit rate : 2 329 Kbps
Movie name : Пушки, телки и азарт / Guns, Girls and Gambling (2012) BDRip
Director : yaroslaigor
Genre : триллер, криминал, комедия
Writing application : VirtualDubMod 1.5.10.2 (build 2542/release)
Copyright : http://hqclub.net/
Comment : 21.12.2013
Video #0
ID : 0
Format : MPEG-4 Visual
Format profile : Advanced [email protected]
Format settings, BVOP : 1
Format settings, QPel : No
Format settings, GMC : No warppoints
Format settings, Matrix : Custom
Codec ID : XVID
Codec ID/Hint : XviD
Duration : 1h 29mn
Bit rate : 1 936 Kbps
Width : 704 pixels
Height : 400 pixels
Display aspect ratio : 16:9
Frame rate : 23.976 fps
Color space : YUV
Chroma subsampling : 4:2:0
Bit depth : 8 bits
Scan type : Progressive
Compression mode : Lossy
Bits/(Pixel*Frame) : 0.287
Stream size : 1.21 GiB (83%)
Writing library : XviD 65
Audio #1
ID : 1
Format : AC-3
Format/Info : Audio Coding 3
Mode extension : CM (complete main)
Format settings, Endianness : Big
Codec ID : 2000
Duration : 1h 29mn
Bit rate mode : Constant
Bit rate : 384 Kbps
Channel(s) : 6 channels
Channel positions : Front: L C R, Side: L R, LFE
Sampling rate : 48.0 KHz
Bit depth : 16 bits
Compression mode : Lossy
Stream size : 245 MiB (16%)
Alignment : Split accross interleaves
Interleave, duration : 42 ms (1.00 video frame)
Interleave, preload duration : 500 ms

Скриншоты


Создавать темы 23-Дек-2013 05:53

[Профиль]  [ЛС] 
Показать сообщения:    
Ответить на тему

Текущее время: 25-Сен 16:39

Часовой пояс: UTC + 5



Вы не можете начинать темы
Вы не можете отвечать на сообщения
Вы не можете редактировать свои сообщения
Вы не можете удалять свои сообщения
Вы не можете голосовать в опросах
Вы не можете прикреплять файлы к сообщениям
Вы не можете скачивать файлы