Ба-бах! / Kaboom (Грегг Араки) [2010 г., фантастика, триллер, комедия, ..., HDRip]

Ответить на тему
 

igor1968 ®

Стаж: 5 лет 5 месяцев

Сообщений: 366

Симпатии: 197

Ба-бах! / Kaboom
Год выпуска: 2010
Страна:
Жанр: фантастика, триллер, комедия, ...
Продолжительность: 01:26:26.561
Перевод: Профессиональный (многоголосый, закадровый)
Режиссер: Грегг Араки
В ролях: Томас Деккер
Хейли Беннетт
Крис Зилка
Роксана Мескида
Джуно Темпл
Энди Фишер-Прайс
Николь Лалиберт
Джейсон Олив
Джеймс Дювал
Бреннан Мейя
...
Первокурсник Смит проводит большую часть времени в общаге, болтаясь со своей артистичной и саркастичной приятельницей Стеллой. Мысли бисексуального Смита занимает красавица-бунтарка Лондон и сосед по комнате, хмурый серфер Тор. Всему этому легкомыслию приходит конец, когда однажды ночью, отведав на вечеринке галлюциногенов, Смит обретает уверенность, что видел жестокое убийство таинственной рыжей девушки, которая являлась ему во сне.- -премьера
15 мая 2010, ...-Качество: HDRip
Формат: AVI
Видео кодек: XviD
Аудио кодек: AC3
Видео: 704x288 (2.44:1), 23.976 fps, XviD build 50 ~2003 kbps avg, 0.41 bit/pixel
Аудио: Audio #1: 48 kHz, AC3 Dolby Digital, 2/0 (L,R) ch, ~192.00 kbps avg (rus)
Audio #2: 48 kHz, AC3 Dolby Digital, 2/0 (L,R) ch, ~192.00 kbps avg (eng)-

MediaInfo

General
Complete name : Kaboom.2010.HDRip.avi
Format : AVI
Format/Info : Audio Video Interleave
File size : 1.45 GiB
Duration : 1h 26mn
Overall bit rate : 2 402 Kbps
Writing application : VirtualDubMod 1.5.10.3 | www.virtualdub-fr.org || (build 2550/release)
Writing library : VirtualDubMod build 2550/release
Video
ID : 0
Format : MPEG-4 Visual
Format profile : Advanced [email protected]
Format settings, BVOP : Yes
Format settings, QPel : No
Format settings, GMC : No warppoints
Format settings, Matrix : Default (MPEG)
Codec ID : XVID
Codec ID/Hint : XviD
Duration : 1h 26mn
Bit rate : 2 004 Kbps
Width : 704 pixels
Height : 288 pixels
Display aspect ratio : 2.40:1
Frame rate : 23.976 fps
Color space : YUV
Chroma subsampling : 4:2:0
Bit depth : 8 bits
Scan type : Progressive
Compression mode : Lossy
Bits/(Pixel*Frame) : 0.412
Stream size : 1.21 GiB (83%)
Writing library : XviD 1.2.1 (UTC 2008-12-04)
Audio #1
ID : 1
Format : AC-3
Format/Info : Audio Coding 3
Mode extension : CM (complete main)
Format settings, Endianness : Big
Codec ID : 2000
Duration : 1h 26mn
Bit rate mode : Constant
Bit rate : 192 Kbps
Channel count : 2 channels
Channel positions : Front: L R
Sampling rate : 48.0 KHz
Bit depth : 16 bits
Compression mode : Lossy
Stream size : 119 MiB (8%)
Alignment : Split accross interleaves
Interleave, duration : 42 ms (1.00 video frame)
Interleave, preload duration : 500 ms
Audio #2
ID : 2
Format : AC-3
Format/Info : Audio Coding 3
Mode extension : CM (complete main)
Format settings, Endianness : Big
Codec ID : 2000
Duration : 1h 26mn
Bit rate mode : Constant
Bit rate : 192 Kbps
Channel count : 2 channels
Channel positions : Front: L R
Sampling rate : 48.0 KHz
Bit depth : 16 bits
Compression mode : Lossy
Stream size : 119 MiB (8%)
Alignment : Split accross interleaves
Interleave, duration : 42 ms (1.00 video frame)
Interleave, preload duration : 500 ms

Скриншоты

- -

Создавать темы 23-Дек-2013 08:30

[Профиль]  [ЛС] 

ildar_ok

Стаж: 3 года 7 месяцев

Сообщений: 8

Симпатии: 1

пожалуста руздачу дайде !!!

Создавать темы 11-Янв-2014 14:25

[Профиль]  [ЛС] 
Показать сообщения:    
Ответить на тему

Текущее время: 20-Авг 11:05

Часовой пояс: UTC + 5



Вы не можете начинать темы
Вы не можете отвечать на сообщения
Вы не можете редактировать свои сообщения
Вы не можете удалять свои сообщения
Вы не можете голосовать в опросах
Вы не можете прикреплять файлы к сообщениям
Вы не можете скачивать файлы