Синий каприз / Blue Caprice (Alexandre Moors) [2013; драма, криминал; WEB-DLRip ]

Ответить на тему
 

Каротажник ®

Стаж: 3 года 11 месяцев

Сообщений: 195

Симпатии: 211

Синий каприз /Blue Caprice

Год выпуска: 2013
Страна: США
Жанр: драма, криминал
Продолжительность: 01:33:12
Перевод: Любительский одноголосный - datynet
Режиссёр: Alexandre Moors
В ролях: Джои Лорен Эдамс, Исайя Вашингтон, Тим Блейк Нельсон, Лео Фицпатрик, Текуан Ричмонд, Эл Сапьенза, Кассандра Фриман, Малик Хэммонд, Алексис Яконо, Тео ван Голен

Эти драматические события происходили в США, 2002 год. Уже потом общественность дала им название "история снайперов кольцевой дороги". Чернокожий мужчина Джон Мухаммед обозленный на весь мир, усыновляет мальчика по имени Ли. Далее он воспитывает мальчика в очень жестких условиях, обучая военному делу. Из Ли, вырастает подневольный и хладнокровный убийца. Идеология тотальной ненависти, превращается в трагедию..


Качество: WEB-DLRip
Формат: AVI
Видео кодек: XviD
Аудио кодек: MP3
Видео: XviD, 1865 Кбит/с, 720x304
Аудио: MP3, 2 ch, 192 Кбит/с

Media Info

Format : AVI
Format/Info : Audio Video Interleave
File size : 1.35 GiB
Duration : 1h 33mn
Overall bit rate : 2 067 Kbps
Writing application : VirtualDubMod 1.5.10.3 | www.virtualdub-fr.org || (build 2550/release)
Writing library : VirtualDub build 34753/release
Video #0
ID : 0
Format : MPEG-4 Visual
Format profile : Advanced [email protected]
Format settings, BVOP : 1
Format settings, QPel : No
Format settings, GMC : No warppoints
Format settings, Matrix : Default (MPEG)
Codec ID : XVID
Codec ID/Hint : XviD
Duration : 1h 33mn
Bit rate : 1 865 Kbps
Width : 720 pixels
Height : 304 pixels
Display aspect ratio : 2.35:1
Frame rate : 23.976 fps
Color space : YUV
Chroma subsampling : 4:2:0
Bit depth : 8 bits
Scan type : Progressive
Compression mode : Lossy
Bits/(Pixel*Frame) : 0.355
Stream size : 1.21 GiB (90%)
Writing library : XviD 1.2.1 (UTC 2008-12-04)
Audio #1
ID : 1
Format : MPEG Audio
Format version : Version 1
Format profile : Layer 3
Codec ID : 55
Codec ID/Hint : MP3
Duration : 1h 33mn
Bit rate mode : Constant
Bit rate : 192 Kbps
Channel(s) : 2 channels
Sampling rate : 44.1 KHz
Compression mode : Lossy
Stream size : 128 MiB (9%)
Alignment : Split accross interleaves
Interleave, duration : 42 ms (1.00 video frame)
Interleave, preload duration : 500 ms

Скриншоты


Создавать темы 23-Дек-2013 22:46

[Профиль]  [ЛС] 

ms700

Стаж: 5 лет

Сообщений: 20

Setora, Оформление просто класс 5+.

Создавать темы 23-Дек-2013 23:18

[Профиль]  [ЛС] 

AeRoNHanD

Стаж: 4 года 11 месяцев

Сообщений: 198

Симпатии: 3

Классный фильмец походу)))Лицензия будет???

Создавать темы 24-Дек-2013 11:39

[Профиль]  [ЛС] 

bashi

Стаж: 5 лет 7 месяцев

Сообщений: 42

AeRoNHanD, ти кино пасматрел брать

Создавать темы 24-Дек-2013 13:03

[Профиль]  [ЛС] 

Ramilzver

Стаж: 7 лет 1 месяц

Сообщений: 115

Симпатии: 4

AeRoNHanD, если фильм классный, то лицензия объязательно будет.

Создавать темы 24-Дек-2013 13:14

[Профиль]  [ЛС] 

AeRoNHanD

Стаж: 4 года 11 месяцев

Сообщений: 198

Симпатии: 3

AeRoNHanD, ти кино пасматрел брать
Нет я еще не смотрел но описание понравилось

Создавать темы 25-Дек-2013 23:41

[Профиль]  [ЛС] 

AeRoNHanD

Стаж: 4 года 11 месяцев

Сообщений: 198

Симпатии: 3

AeRoNHanD, если фильм классный, то лицензия объязательно будет.
Надеюсь

Создавать темы 25-Дек-2013 23:55

[Профиль]  [ЛС] 

jas81

Стаж: 3 года 10 месяцев

Сообщений: 108

Симпатии: 7

фильм похож на "Вашингтонский снайпер"

Создавать темы 28-Дек-2013 20:25

[Профиль]  [ЛС] 

Agness

Стаж: 5 лет 4 месяца

Сообщений: 208

Симпатии: 10

Фильм отличный качайте не пожалеете, что потратили время!

Создавать темы 28-Дек-2013 21:26

[Профиль]  [ЛС] 
Показать сообщения:    
Ответить на тему

Текущее время: 25-Сен 18:20

Часовой пояс: UTC + 5



Вы не можете начинать темы
Вы не можете отвечать на сообщения
Вы не можете редактировать свои сообщения
Вы не можете удалять свои сообщения
Вы не можете голосовать в опросах
Вы не можете прикреплять файлы к сообщениям
Вы не можете скачивать файлы