Риддик / Riddick (Дэвид Туи) [2013 г., Фантастика, Боевик, Триллер., DVDRip][Лицензия][iTunes]

Ответить на тему
 

X3JumperRaZ0R ®

Стаж: 5 лет 1 месяц

Сообщений: 177

Симпатии: 151

<<Лутший Способ Отомстить, Остаться В Живых>>
Год выпуска: 2013
Страна: США,Великобритания.
Жанр: Фантастика,Боевик,Триллер.
Продолжительность: 01:58:30
Перевод: Профессиональный (полное дублирование) Цифровая Лицензия. [iTunes]
Режиссер: Дэвид Туи.
В ролях: Вин Дизель, Карл Урбан, Хорди Молья, Мэтью Нэйбл, Кэти Сакхофф, Дэйв Батиста, Букем Вудбайн, Рауль Трухильо, Конрад Пла, Дэнни Бланко.
Описание: Преданный своими и брошенный умирать на пустынной планете, Риддик сражается с хищниками за жизнь и становится сильнее и опаснее себя прежнего. Открывшие на него охоту галактические наемники оказываются пешками в грандиозном плане отмщения. С врагами, возникающими на его пути тогда, когда это нужно самому Риддику, он начинает поход во имя мести, чтобы в конечном счете вернуться на родную Фурию и спасти её от уничтожения...
Бюджет: $ 38 000 000
Сборы в США: $ 42 025 135
Сборы в России: $ 10 246 070
Сборы в мире: + $ 56 312 160 = $ 98 337 295
Премьера (мир): 4 сентября 2013
Премьера (РФ): 12 сентября 2013, «Централ Партнершип» Качество: DVDRip.
Формат: AVI.
Видео кодек: XviD.
Аудио кодек: AC3.
Видео: 1256 Кбит/с, 720x304.
Аудио: 6 ch, 384 Кбит/с.
Возраст: 16+

MI

General
Complete name                    : D:\kino-5\555\Riddyk.2013.D.DVDRip.1400MB-TST_(bodyboy1993@mail.ru)_RaZ0R_xJ.avi
Format                           : AVI
Format/Info                      : Audio Video Interleave
File size                        : 1.37 GiB
Duration                         : 1h 58mn
Overall bit rate                 : 1 651 Kbps
Writing application              : VirtualDubMod 1.5.10.2 (build 2540/release)
Writing library                  : VirtualDubMod build 2540/release
Video
ID                               : 0
Format                           : MPEG-4 Visual
Format profile                   : Advanced Simple@L5
Format settings, BVOP            : 3
Format settings, QPel            : Yes
Format settings, GMC             : No warppoints
Format settings, Matrix          : Default (H.263)
Codec ID                         : XVID
Codec ID/Hint                    : XviD
Duration                         : 1h 58mn
Bit rate                         : 1 258 Kbps
Width                            : 720 pixels
Height                           : 304 pixels
Display aspect ratio             : 2.35:1
Frame rate                       : 23.976 fps
Color space                      : YUV
Chroma subsampling               : 4:2:0
Bit depth                        : 8 bits
Scan type                        : Progressive
Compression mode                 : Lossy
Bits/(Pixel*Frame)               : 0.240
Stream size                      : 1.04 GiB (76%)
Writing library                  : XviD 1.2.1 (UTC 2008-12-04)
Audio
ID                               : 1
Format                           : AC-3
Format/Info                      : Audio Coding 3
Mode extension                   : CM (complete main)
Codec ID                         : 2000
Duration                         : 1h 58mn
Bit rate mode                    : Constant
Bit rate                         : 384 Kbps
Channel(s)                       : 6 channels
Channel positions                : Front: L C R, Side: L R, LFE
Sampling rate                    : 48.0 KHz
Bit depth                        : 16 bits
Compression mode                 : Lossy
Stream size                      : 326 MiB (23%)
Alignment                        : Split accross interleaves
Interleave, duration             : 42 ms (1.00 video frame)
Interleave, preload duration     : 500 ms

Скриншоты





Последний раз редактировалось: X3JumperRaZ0R (2013-12-25 19:37), всего редактировалось 1 раз

Создавать темы 24-Дек-2013 01:45

[Профиль]  [ЛС] 

_macho

Стаж: 5 лет 6 месяцев

Сообщений: 64

X3JumperRaZ0R, шустрый ты ))

Создавать темы 24-Дек-2013 19:39

[Профиль]  [ЛС] 

Alex Dancer

Стаж: 5 лет 7 месяцев

Сообщений: 181

Симпатии: 21

А на этом как звук???
А то на предыдущий релиз этого фильма были жалобы по звуку, я и не стал качать.

Создавать темы 24-Дек-2013 21:22

[Профиль]  [ЛС] 

TimaK

Стаж: 6 лет 3 месяца

Сообщений: 129

Симпатии: 23

А на этом как звук???
А то на предыдущий релиз этого фильма были жалобы по звуку, я и не стал качать.
Если есть более хороший звук чем лицензия дай нам знать! а то про таких я еще не слыхал.
Перевод: Профессиональный (полное дублирование) Цифровая Лицензия.

Создавать темы 24-Дек-2013 22:42

[Профиль]  [ЛС] 

TimaK

Стаж: 6 лет 3 месяца

Сообщений: 129

Симпатии: 23

Alex Dancer, Ой забыл добавить
Аудио: 6 ch, 384 Кбит/с.

Создавать темы 24-Дек-2013 22:44

[Профиль]  [ЛС] 

Alex Dancer

Стаж: 5 лет 7 месяцев

Сообщений: 181

Симпатии: 21

Если есть более хороший звук чем лицензия дай нам знать! а то про таких я еще не слыхал.
Перевод: Профессиональный (полное дублирование) Цифровая Лицензия.
Во-первых, не надо мне ТЫкать, мы не друзья, и я полагаю вы не дама, чтоб иметь прерогативу в этом вопросе.
Во-вторых, мне как-то попалась не очень хорошая "лицензия" именно от айтюнса.
Ну и в-третьих, будьте проще, и люди к вам потянутся. Как вы к ним относитесь, так и они к вам будут. Ведь можно же было просто написать что-то типа - "да, звук хороший/отличный (нужное подчеркнуть), такого-то качества, и даже на проф. аппаратуре качественное звучание" ???

Создавать темы 25-Дек-2013 00:36

[Профиль]  [ЛС] 

d-one

Стаж: 5 лет 7 месяцев

Сообщений: 21

Симпатии: 1

Если есть более хороший звук чем лицензия дай нам знать! а то про таких я еще не слыхал.
Перевод: Профессиональный (полное дублирование) Цифровая Лицензия.
Во-первых, не надо мне ТЫкать, мы не друзья, и я полагаю вы не дама, чтоб иметь прерогативу в этом вопросе.
Во-вторых, мне как-то попалась не очень хорошая "лицензия" именно от айтюнса.
Ну и в-третьих, будьте проще, и люди к вам потянутся. Как вы к ним относитесь, так и они к вам будут. Ведь можно же было просто написать что-то типа - "да, звук хороший/отличный (нужное подчеркнуть), такого-то качества, и даже на проф. аппаратуре качественное звучание" ???
ну что там насчет звука то?

Создавать темы 25-Дек-2013 15:58

[Профиль]  [ЛС] 

Mansurbek84

Стаж: 6 лет 9 месяцев

Сообщений: 80

Симпатии: 8

Судя по скринам видео не очень то и хорошое.

Создавать темы 01-Фев-2014 17:28

[Профиль]  [ЛС] 

AeRoNHanD

Стаж: 4 года 10 месяцев

Сообщений: 198

Симпатии: 3

Судя по скринам видео не очень то и хорошое.
DVDRip же качество.Вроде нормальное

Создавать темы 01-Фев-2014 19:06

[Профиль]  [ЛС] 

X3JumperRaZ0R ®

Стаж: 5 лет 1 месяц

Сообщений: 177

Симпатии: 151

Cкорость скачивание норм же...! Сидов: 32 [ 194 KB/s ]

Создавать темы 04-Фев-2014 06:41

[Профиль]  [ЛС] 

jas81

Стаж: 3 года 9 месяцев

Сообщений: 108

Симпатии: 7

фильм не так хорош. Первые 30 минут вообще скучно

Создавать темы 11-Фев-2014 00:43

[Профиль]  [ЛС] 

Rasul

Стаж: 5 лет 7 месяцев

Сообщений: 100

Симпатии: 6

мне понравился....

Создавать темы 11-Фев-2014 09:48

[Профиль]  [ЛС] 

X3JumperRaZ0R ®

Стаж: 5 лет 1 месяц

Сообщений: 177

Симпатии: 151

мне понравился....
да и мне тож нормальный фильмец но комуто нето

Создавать темы 11-Фев-2014 10:55

[Профиль]  [ЛС] 

Masud

Стаж: 3 года 6 месяцев

Сообщений: 12

Симпатии: 1

Приветствую! Прошу, дайте скачать, дайте скорость, пожалуйста.

Создавать темы 23-Фев-2014 13:30

[Профиль]  [ЛС] 
Показать сообщения:    
Ответить на тему

Текущее время: 24-Авг 15:47

Часовой пояс: UTC + 5



Вы не можете начинать темы
Вы не можете отвечать на сообщения
Вы не можете редактировать свои сообщения
Вы не можете удалять свои сообщения
Вы не можете голосовать в опросах
Вы не можете прикреплять файлы к сообщениям
Вы не можете скачивать файлы